&title=なんもねえ
&artist=忘れらんねえよ
&first=-0.3
&des=Caerulea
&des_5=Caerulea
&lv_5=13
&inote_5=(166){4},,1/2,8-4[4:1]/7-2v4[4:1],
{2}7b/8b,{4}3/6,2-6[8:1]/7-1[8:1],
{8}2b/7b,{16},,,,3,4,{8}3,2/5,{4}8qq7[4:1]*pp1[4:1],
8b,D8/A8/D1,{12}8,2,8,1,7,1,
{6}8b,{12}3,4,2,6,5,7,1,8-4[8:1],,,{4}8b/2>5[8:1],
{12}2,,7,{6}5x,{12}6,8x>3[8:1],,,{4}8/7,
{12}7,,2,{6}4x,{12}3,1x<6[8:1],,,{4}1/2,
{12}1/5,,2,{6}4,{12}5,3,,6,
{4}6-1[8:1],2-5[8:1],{12}8,7,6,1,2,3,
{6}4b>8[8:1],{12}7,4,,6,{4}6-4[8:1],{12}6-8[8:1],,1,
{6}6,{12}2,2,,,{4}3v8[8:1]/5v8[8:1],3/5,
2-6[8:1],{12}2,,8,{6}7<4[8:1],{12}1,7-3[8:1],,,{4}7/8,
{12}1/5,,2,{6}4,{12}5,3,,6,
{4}6/4<8[4:1],{12}8-3[6:1],,4x,{4}5x,5-2[8:1],
3-6[8:1],8pp2[4:1]*qq6[4:1],{2}8,
{6}8-4[8:1],{12}8,8/1-5[8:1],,1,{6}1/7-3[8:1],{12}7,7/2-6[8:1],,2,
{4}2,8h[4:1],{12}5,7,4,8,2,7,
{4}1-6[8:1],7h[4:1],{32},,,,E5,E6/E4,E7/E3,E8/E2,{4}E1,
8-3[8:1],2h[4:1],{32},,,,E5,E4/E6,E3/E7,E2/E8,{4}E1,
8-2v3-5[4:1],5<1-4[8:3],,,8<4[8:1]*>4[8:1],
8-4[8:1],8<4[8:1]*>4[8:1],8w4[8:1],
Cf,{12}2/6,,6,{6}5,{12}5,7,,7,
{4}8-2[8:1]*-3[8:1],8,{6}5<8[8:1],{12}4,5,,,{6}3/1,
{12}3,4,,4,{6}2,{12}2,1-7[8:1]*-6[8:1],,,{4}1,
{12}4>1[8:1],,5,{4}4,8-4[8:1]/6-4[8:1],
6/8,{12}3,,3,{6}4,{12}4,2,,2,
{4}1-7[8:1]*-3[8:1],1,{6}4>1[8:1],{12}5,4,,,{6}6/8,
{12}6,5,,5,{6}7,{12}7,8-2[8:1]*-6[8:1],,,{4}8,
{12}5<8[8:1],,4,{4}5,1-5[8:1]/2-4[8:1],
2/1,8-4[8:1]/7-5[8:1],{6}7/8,{12}1x-5[6:1],8x-4[6:1],,1x,
{4}8x,3/6,1/8,2>6[4:1],
6p1[4:1],1>5[4:1],{2}5p8[4:1],
{4}Cf,{12}6,,6,{6}8,{12}8,7,,1,
6V47[4:1],,,,,Cf/B2/A2,,,1,2,,8,
3V52[4:1],,,,,Cf/B7/A7,,,8,3,,6,
{4}1>5[4:1],1<5[4:1],{2}1-5V38b[2:1],
Cf,{12}6,5,7,3-7[8:1],4,2,
{4}A3f,{12}1-5[8:1],,7,{4}1/8-4[8:1],{16}2<7[8:1],,,3,
{4}2,4w8[8:1],4,{16}5w1[8:1],,,4,
{4}5,{12}3/7,,8,{6}2bxh[6:1],{12}1,7bxh[6:1],,3,
{6}5bxh[6:1],{12}7,6,8,2,1,3,5,4p7[6:1]*q1[6:1],,,{4}A4f,
8<5[8:1],8/3>8[8:1],{12}3-5[8:1],,5,
{4}3,{12}7,,7,{4}5/8>3[8:1],8/5-1[8:1]*v8[8:1],
5,7-3[8:1],7/2<7[8:1],2,
{2}4<1b[4:1],{4}4-8[8:1],Cf/4xw8[8:1],
{16}4x/B4,C,{8}B8,{4}2-5b[8:1]/7-3[8:1],7/2-8[12:1],{12}2,,6,
{4}6>8[4:1],6/3h[4:1],{12},,,5/2,,3,
{4}7<3[4:1],A7f/3>7[4:1],7<3[4:1],A7f/3>7[4:1],
{12},,,Cf,,2,{6}1,{12}3,8,,4,
{4}7-4b[8:1]/2-6[8:1],2/7-1[12:1],{6}7,{12}3,3<1[4:1],,,3/6h[4:1],
,,,,5,{6}2,{12}4,3,,5,
{4}2>6[4:1],6<2[4:1],2>6[4:1],6<2[4:1],
{8},,,5x/1x,,5x/2x,,5x/3x,
{4}4x/5-7[8:1],5-1[8:1],5-7[8:1],5-1[8:1],
4-2[8:1],4-8[8:1],4-2[8:1],4-8[8:1]/7-5[8:1],
7/4,{12}1,,1,{6}5,{12}5,3,,3,
6,5,6,3,4,3,7,6,7,2,3,2,
{4}8-2v3-5[4:1],4h[4:1],{8},3bx/7bx,,,{4}8-2v3-5b[4:1],
4h[4:1],{8},3bx/7bx,,,{4}3h[4:1],
4h[4:1],{32}D4,A3,D3,A2,{8}D2,,,{4}1>5[8:1]*<5[8:1],
1-5[8:1],1>5[8:1]*<5[8:1],1w5b[8:1],
,A1/D5/B3/E5/E3/E4/A3/B4/A4/D4/D3/A2/B2/B6/D7/E2/B7/A5/E7/E8/E1/B1/Cf/B5/E6/D6/A6/A7/D8/A8/D1/B8/D2,
E
