&title=Phantigma
&artist=打打だいず
&first=0
&des=W - W - WITHER
&lv_5=14+
&des_5=W - W - WITHER
&inote_5=
(210){4},,,,,,,,{1}6bxh[4:7]/2bx-4-7V15b[2:3],
{2},,B3,
A7/E8,
B6,A2/B2,
{1}3bxh[4:7]/7bx-5-2V84b[2:3],
{4},,,,3/E6,
3,2/B6,2,
1/B7,1,1/8,{16}2,5,3,6,
{8}1b,{16}7,8,{8}7,6/1,{16}2,4,2,4,{8}2,1/5,
5b,{16}3,4,{8}3,{16}6,5,{8}6,{16}3,4,{8}2,{16}8,7,
{8}6b,{16}3,4,,4,{8}3,{16}1,2,1,2,1,2,{8}1,
{16}3,4,,4,{8}5,6x/3x,{16}6h[16:1],8,,7h[16:1],{8}1,1/8,
2b/7b,{16}1,2,3,7,6,5,2,3,4,8,7,6,1,2,
{8}3b,{16}5,4,{8}5,3/6,{16}2,8,3,7,4,6,{8}5,
{4}3b/7b-1[8:1],7/2-6[8:1],2/8<5[8:1],8/4w8[8:1],
4b,6x/2x-8[8:1],2/7-3[8:1],7/1,
{8}2b/8b,{16}6,5,{8}6,{16}3,4,{8}3,{16}6,5,{8}7,{16}2,1,
{12}3,3,3,8,8,8,{16}4,5,2,7,3,6,{8}Cf,
{16},,,,,,,,,,,,,,,,4,
5,,5,{8}4,{16}4,5,,5,{8}4,3/6,2/7,
1b/8b,1,1,1/B3/B4,1,1,1/E7/B7,1,
1,1/B2/E3,1,1,{4}1>4[8:1]/8<5[8:1],1/8,
{8}7b/2b,7,7,7/B2/E3,7,7,7/B5/B6,7,
7,7/E1/B1,7,7,{4}7<4[8:1]/8>3[8:1],7/8,
{16}1,8,{8}1,2/7,{16}3,3/4,,6,{8}6/5,{24}4,3,2,1,{12}8h[12:1]/7h[12:1],
{48},,,,,,{16}6,5,6,5,{8}6,7/4,1/8,{24}1/8,7/2,6/3,5/4,,,{4}1b-4[8:1]/8b-3[8:1],
1b-6[8:1]/8b-5[8:1],8bq4[8:1]/1b>4[8:1],8b/1b,
{16},,6,7,8,1,2,3,4-8[8:1],5/1,6/2,7/3,{64}4b/8b,Cf,,,,,,,,,,,,,,,{8}1x/7x,
7x/1x,3h[8:1],5,2/8,8/2,4h[8:1],6,
1/3,1/3,5h[8:1],7,{16}4,8,3,7,2,6,{8}1,
5/8-4[8:1],8/5h[8:1],,,6/5-2[8:1],5/6h[8:1],,,8/1-5[8:1],
1/8h[8:1],{16},,,,4,8,3,7,2,6,1,5,
{8}8b-4b[8:1],{16},,,,5,5,{32}5/E2f/A2/D2,D3,A3,D4,,,E8f/A7/D8,D7,A6,D6,,,B1f/E1/A1,C,B5,A5,
,,,,{8}4x/6x,{4}6x/4x,{16}5h[8:1]/7h[8:1],,,6h[8:1]/4h[8:1],,,{8}3/5,
3b/5b-1b[8:1],{16},,,,2,2,{32}2/E8f/A7/D8,D7,A6,D6,,,E2f/A2/D2,D3,A3,D4,,,B8f/E1/A8,C,B4,A4,
,,{16}2x,,3x/5x,{4}5x/3x,{2}3<6[8:1],
{8}8/2,2/8,6h[8:1],4,7/1,1/7,5h[8:1],3,
8/6,8/6,4h[8:1],2,{16}5,1,6,2,7,3,{8}8,
4/1-5[8:1],1/4h[8:1],,,3/4-7[8:1],4/3h[8:1],{16},,,,1,
8,1,8,1,8,1,8,{32}1,2,3,4,5,6,7,8,{4}1h[8:1],
{16}3b-8[8:1],4,3,4,3,,,7,{8}7,1/8,{16}2,7,{8}2,
{16}6,6/5,,3,{8}3/4,2/7,{16}1,8,{8}1,{16}7-4[8:1],5,7,5,
7,,,3,,,{8}3/5,{16}2,8,{8}2,{16}7,7,,2,
{8}2,3/6,{16}5,4,{8}5,{16}2-5[8:1],4,2,4,2,,,6,
,,{8}6/4,{16}7,1,{8}7,{16}3,3,,6,{8}6,1/8,
{16}2,7,{8}2,1b-5[8:1]/8b-4[8:1],1b/8b,{16}8b/1b,,,6-1[8:1],,,{8}6,
2-4[8:1]*-6[8:1],2,{16}2,,,7x/5x,,,{8}4/6,3/5,2/4,
{16}1/4h[2:1],2,3,5,6,7,8,1,{8}2,3x/5x,{16}5x/3xh[1:1],4,2,1,
8,7,6,5,4,2,1,8,7,6,5,4,,,,,{1}5/4-1[2:7],
{4},,,,,,,,,,,,2/E1,
2/E8,2/E7,2/E6,
2/E5,2/E4,2/E3,2/E2,
8/2,8/E2,8/E1,8/E8,
8/E7,8/E6,8/E5,8/E4,
{8}5,6,{4}4/7,{8}4,3,{4}2/5,
{8}1/8,7,6/4,5,4-7[8:1]/3-8[8:1],4/3,{4}4/3,
{8}1,2,{4}8/3,{8}8,7,{4}6/1,
{8}5/4,3,2/8,1,8-3[8:1]/7-4[8:1],8/7,{4}8/7,
{8}6,5,{4}7/4,{8}3,4,{4}2/5,
{8}1/8,2,3/5,6,7-4[8:1]/4-8[8:1],7/4,{4}7/4,
{8}1x/5x,1x/5x,3/7,3/7,{32}E2,E3,E4,E5,E6,E7,E8,E1,D2,D3,D4,D5,D6,D7,D8,D1,
{1}A1/A2/D2/E2f/Cfh[2:1],
{4}6/4,6/4,6/4,{8}6/4,5/3,
{4}4/2,4/2,2/4,{8}2/4,3/5,
4/6,6,3/5,3,7/5,7,2/4,2,
8/7,7/8,6/5,5/6,2/4,2/4,{16}5,3,5,3,
{8}5,{16}1,8,1,8,2,7,2,7,3,6,3,6,4,5,
{12}3,3,5,2,2,6,1,1,7,2,2,8,
{1}3xq5[1:1],
Cfh[4:3],
{8}5b/2b-5[8:1],{16}3,4,{8}2-8[8:1],6,{16}7,7,,6,{8}6,2/5,
4b/7b-4[8:1],{16}6,5,{8}7-1[8:1],3,{16}2,2,,3,{8}3,7/4,
2b-6[8:1],{16}3,5,{8}2-8[8:1],7,{16}7,7,,6,{8}6,1/5,
2x-6[8:1]/4x-7[8:1],3,{4}4x/2x,{8}8x-4[8:1]/5x-2[8:1],7,{4}5x/8x,
{8}1bx/5bx,{16}2,4,3,5,4,6,5,5h[8:1],,7,{8}7h[8:1],3,
4b/8b,{16}7,5,6,4,5,3,4,4h[8:1],,2,{8}2h[8:1],6,
{16}2-6[8:1],1,3,8,{4}2,{16}7-3b[8:1],8,6,1,{4}7,
1-7-5-3[2:1],A1f/D2/D1,{2}1x-5b[8:1],
{8}2b,{16}4-8[8:1],2,5,3,{8}6,{16}7,7h[8:1],,1,{8}1h[8:1],7,
7b,{16}5-1[8:1],7,4,6,{8}3,{16}2,2h[8:1],,8,{8}8h[8:1],2,
2b,{16}7-1b[8:1],5,6,5,{8}7,{16}2,2h[8:1],,8,{8}8h[8:1],4,
4/8,4/8,{32}4b/8b,7/3,6/2,5/1,,,,,{8}4x/8x,8x/4x,{32}4b/8b,1/5,2/6,3/7,{96},,,,,,,,,,,,{6}1b/7b,
7b/5b,5b/3b,3b/1b,1b/7b,7b/5b,
{4}2qq5[2:1]/7pp4[2:1],,,E5f/A5/A4/B5/B4,
{16}1,2,3,4,5/6,7,8,1,2/3,4,5,6,7,8,1,2,
3/8,7,6,5,8,7,6,5,7,6,5,4,7,6,5,4,
{8}8b,8,{24}1,2,3,7,6,5,2,3,4,8,7,6,1,2,3,7,6,5,
{8}1b,{24}3,4,3,{8}4,2,{24}6,5,6,5,{48},,,,{16}7,8,7,8,
{8}7b,{16}5,6,5,6,4,5,4,5,3,4,3,4,2,4,
2b,3,4,5,2,3,4,5,7,6,5,4,7,6,5,4,
1b,3,1,3,1,3,1,3,1,3,1,3,1,3,1,3,
{24}1b,2,3,4,5,6,7,8,1,2,3,4,1,2,3,4,8,7,6,5,8,7,6,5,
{8}2b-6[8:1],{16}6,6,{8}2-4[8:1],7,{16}8,8,,7,{8}7,2/6,
1b-7[8:1],{16}6,5,{8}4/1x-3[8:1],{16}3,4,{8}5/1x-6[8:1],{16}6,5,{4}4/1x,
{8}7bx-3[8:1],{16}3,3,{8}7-5[8:1],2,{16}1,1,,2,4,2,4,2,
{8}4b,{24}1,2,3,{8}4,{16}7,1,{24}7,6,5,4,,,{8}1-5[8:1],2/4,
1b,6h[16:1],6h[16:1],5h[16:1]/7h[16:1],5h[16:1]/7h[16:1],4h[16:1]/8h[16:1],8h[16:1]/4h[16:1],{16}1<5[8:1],3,
{8}1b,{16}5,4,3,2,{8}1,5b/1b>5[8:1],5,{16}5,6,7,8,
1,5,1,5,8,4,8,4,7,4,6,5,7,4,6,5,
7b,4,7,4,6,3,6,3,6,3,5,4,6,3,5,4,
6b,3,6,3,5,2,5,2,5,2,4,3,5,2,4,3,
8b,1,8,1,7,2,7,2,7,2,8,1,7,2,8,1,
{24}8,7,6,5,4,3,2,1,8,7,6,5,4,3,2,1,8,7,6,5,4,3,2,1,
8,7,6,5,4,3,2,1,8,7,6,5,4,3,2,1,8,7,6,5,4,3,2,1,
{1}8b/Cf,
{2}1h[4:1],2h[4:1]/8h[4:1],
{1}6h[4:7]/1V36V41[2:3],
,2h[4:7]/5V72V85b[2:3],
{4},,,,7/4-2<1V35[1:1],
6,5,4,
5,6,7/4,8/3,
{12}2,4,3,6,4,5,3,5,4,7,5,6,
{16}4,7,4,7,3,8,3,8,2,1,2,1,2,1,2,1,
{8}2b-4[8:1],2,{16}2/8,,,6,,,{8}5/4,{16}3,4/3,,6,
{8}5/6-8[8:1],6,{16}5/6,,,2,1,2,{8}1,3/4,2,
6/5,7,{16}1/8-4[8:1],,,8/2,,,{8}2,{16}3,3/5,,6,
{8}6/4,2,5/3,7,{16}1/8,1/8,{48},,,,{24}1/8,2/7,6/3,{6}4h[24:1]/5h[24:1],
{16}1b,7,5,7,1,7,5,7,1,7,5,7,,,{8}1/8,
{16}8b,2,4,2,8,2,4,2,8,2,4,2,{8}8,1/8,
{24}2,7,3,6,,,{8}5/4,3/6,{16}2/7,,,1/8,,7,3,5,
{4}1-5[2:1],,,Cf/B6/B7/B2/B3,
{16}2b-6[8:1],5,3,4,2,,,7,{8}7,5/6,{16}3,4,{8}2,
{16}7,8/7,,2,{8}2/1,3/8,{16}6,5,{8}6,{16}7b-3[8:1],4,6,5,
7,,,2,{8}2,5/3-1[8:1],{16}3,4,{8}3,{16}7,7/8,,2,
{8}1/2,3/8,{16}6,5,{8}8,{16}2b-4b[8:1],1,3,8,2,,,6,
{8}7/5,7,{16}3,4,{8}1,{16}7,8/6,,3,{8}2/4,2-8[8:1],
{16}2,4,{8}2,7b-5b[8:1],7b,{16}7b,,,3,{8}4/2,2,
8,7/1,{16}1/7-4[8:1],,,3/7,,,{8}2,1/5,1/5,
{24},,{12}1b/8b,8/1,8/1,8/1,8/1,8/1,8/1,8/1,8/1,{24},{8}7/2,
{16}3,6,4,5,2,7,4,5,1,8,3,6,{8}1b,1b,
{16}D1,D2,D3,D4,D5,D6,D7,D8,E1,E2,E3,E4,E5,E6,E7,E8,
{1}4xh[4:17]/E1,
3bx<4-6-8-2q5b[1:3],
{2},,,,,B6/B7/E7/B2/E3/B3/Cfh[1:3],
,,,,,B8f/B4f/B5/B1/E1/E5,
E
