&title=Monochrome Butterfly
&artist=藍月なくる
&first=-0.797
&des=Pototato
&lv_5=13+
&des_5=Pototato
&inote_5=
(175){4},,,,D4/3>6[4:3],
A4,D5,A5,
{8}5,5,6/4,6/4,3<5[8:1]/7<5[8:1],7/3,{4}7b/3bV17[4:1],
{8}3/6,6,5-7>1[4:1],5,3,3,2<7[8:1],2,
6,5<6-8[8:1],4,3,2>5[8:1],1,8,7,
4/7V13[4:1],4,3,3,4-2<8[4:1],4,6,6,
7>2[8:1],7,3,4,4>3-1[8:1]*-7[8:1],5,{4}4,
{8}8/3<4v1[4:1],8,7,7,6>5v8[4:1],6,2>5[8:1],2,
2,7<6-4[8:1],8,1,2<7[8:1],3,4,5,
6-4v7[4:1],6,1,2,3-5v2[4:1],3,6,7,
8-6>5[8:1],1,2,3,4,5/4,6/3,{16}6,5,
{4}6b<1[8:1],{8}3,3>8[8:1],,6,5,5h[8:7],
,B2,B6,B8,B4,B7,{4}B2,
5/3>8[8:1],{8}6,6<1[8:1],,3,4,4h[8:7],
,E8,B5,E1,E5,E2,{4}B4,
4/6v1[8:1],{8}3,3v8[8:1],,6,5,5h[8:7],
,B7,B3,B1,B5,B2,{4}B7,
5/3v8[8:1],{8}6,6<1[8:1],5,4,3,3h[8:7],
,E6,B8,E5,{4}E1,Ch[4:1],
{8}2b-5-3[4:1],2,6,6,7-4-6[4:1],7,2<1-7[8:1],2,
2,5<8[8:1],4,3,2-4<5[8:1],1,8,7,
6>5pp7[4:1],6,1,2,3<4qq2[4:1],3,6,7,
8qq6[8:1],1,2,3,4,5/4,6/3,{16}6,5,
{4}6b<1[8:1],{8}4,3>8[8:1],,6,5,5h[8:7],
,2,4,1,2,8,{4}1,
{8}5/3>2-8[8:1],5,6,6<7-1[8:1],,3,4,4h[8:7],
,6,5,7,6,8,{4}1,
4/6-1[8:1],{8}4,3-8[8:1],,6,5,5h[8:7],
,2,3,1h[8:1],,7,{4}8,
5/3v6[8:1],{8}6,7,8,5/1h[8:3],,5h[8:5],
,1,8,7,6,{16}5,6,4,7,3,8,
{8}2<1v4[4:1],2,2x/5x,6,7>8v5[4:1],7,7x/4x,3,
2<1pp3[4:1],2,2x/5x,6,7>8qq6[4:1],7,7x/5x,4,
3<4v1[4:1],3,3x/8x,7,6>5v8[4:1],6,6x/1x,2,
3<4qq2[4:1],3,{4}3x/B8/E8/B7,{8}6>5pp7[4:1],6,{4}6x/B2/E2/B1,
{8}4v1-3[4:1],4,7x/4x,6,5v8-6[4:1],5,2x/5x,3,
4q1>3[4:1],4,7x/4x,6,5p8<6[4:1],5,5x/3x,2,
1>4v2[4:1],1,6x/1x,7,8<5v7[4:1],8x/1x-7[8:1],8,1bx-3[8:1],
,8bx<5pp6[8:3]/1bx>4qq3[8:3],,1bx/8bx,,,,,{4}5h[8:3]/4bh[8:1],
{8}2,1-6[8:1],,1/4-8[8:1],,4,
2h[8:3],6,5,4>2v5[4:1]*-6<8[4:1],,,,,2-7b[8:1],
7-3[8:1],2,5,6-1b[8:1],1-6[8:1],6-3b[8:1],3-6-2<4[2:1],
,,,,,1,2,3,
{4}4h[8:3]/5bh[8:1],{8}7,8-3[8:1],,8/5-1[8:1],,5,
7h[8:3],3,4,5-3>1[4:1]*-7v4[4:1],,,,,7-2b[8:1],
2-6[8:1],7,4,3h[8:3],7,6,8,
7b/2b,4bp8[16:3]/5bq1[16:3],{16},,,,,,2bx/7bx,3bx/6bx,{4}4bx/5bx,
{8}4bx/5bx,4/5bxh[8:5],B1/E2,3,B8/E1,2,B7/E8,1,
4bx/5bx,5/4bxh[8:5],B8/E8,6,B1/E1,7,B2/E2,8,
5/7-5b[8:1],5-8[8:1],2,3,4-1b[8:1],1-4[8:1],4-7b[8:1],7-4-8>5[2:1],
,,,,,6,7,8,
8bx/4bx,4/8bxh[8:5],3,4,2,4,1,3,
1bx/8bx,8/1bxh[8:5],7,8,6,8,5,7,
6<1[8:1],5,4,3<6[8:1],2,1,8-3[8:1],7,
6/8,5,4,5/2,{16}4,6,{8}4,6/3,{16}7,7,
{8}3-6-4[4:1],3,8,8,7-4<6[4:1],7,3>2-8[8:1],3,
3,6<1[8:1],5,4,3-5<6[8:1],2,1,8,
7-1-5<6[4:1],7,2,3,4-8-2>3[4:1],4,5,6,
7h[8:3],8,1,2,3,6/4,7/5,{16}7,6,
{8}6bx/7x,6/7,5bx/7,6/7,4bx/7,6/7,3bx/7,6/7,
2/7bx,2/7,2/6bx,2/7,2/5bx,2/7,2/4bx,2/7,
2bx/3,3/2,3/1bx,3/2,3x/8x,4x/2x,3x/6x,7x/5x,
3x/6x,{16}5,4,{8}5,5/3,6/2,7/1,8/2,7/3,
5b/4b,3b>8pp1-4qq3-5[8:21]/6b<1qq8-5pp6-4b[8:21],
E
