&title=Eccentric Tale
&artist=Yamajet
&first=0.25
&des=请输入文本
&lv_5=14
&inote_5=(132)
{2},
{16}4`5,,,21,,7,7h[8:1],,5,,{16}3`4,,,18,,6,6h[8:1],,4,,{24}4,5,3,4<7qq5<8[8:5],2,,
{16},,,,{32},,1x,2,3,,,,{8},,,
{8}17,{16}2>5[176#4:1],,,2h[16:3],,,,,{8}87,{16}1>4[176#4:1],,,1h[16:3],,,,,
{8}67,{16}8>3[176#8:1],,,8h[16:3],,,,,45,,2,4,3,7,5,6,1,5,3,
{16}7<4[176#4:1],,,7h[16:3],,,,,{8}12,{16}8<5[176#4:1],,,8h[16:3],,,,,
{8}32,{16}1<6[176#8:1],,,1h[16:3],,,,,28,,1h,5,3,8h,4,6,2bpp1[176#4:3],,,
{16}8,,,7,,,6,,,,5,,5-2[176#16:3]/4>1[176#16:3],,,,,,
{16}8,,75,,3pp2[176#4:3],,{16}1,,,8,,,7,,,,6,,7<4[176#4:1]/5-2[176#4:1],,,,,,,,6x,6,2,8,
{16}4>8[176#4:1],,,7,,,5h[8:3],,6,,4,,2qq5[176#2:1],,,,,,
{16}4,,5,,{8}6,{16}1x>6[176#8:3],,,4xqq8[176#8:3],,,,,{8},{16}7x<2[176#8:4],,,4xpp8[176#8:3],,,,,
{16},,{16}1x-5[176#8:1],,,4xw8[176#8:1],,,,,,,7h,5,1,3h,5,1,7bqq6<8[176#4:3],,,
{16}1,,,2,,,3,,,,4,,{32}53,,,,{16}2,5,3,4,
{16}1,8,2h[8:1],,5,,{16}2pp1[176#4:3],,,5,,,6,,,,7x`8xh[16:5],,,,,
4<7[176#16:3]*>1[176#16:3],,,,,,,8,,1<6[176#8:1]/2h[16:3],,,
{16},,,1>4[176#8:1],,,,8,,7^5[176#8:1]/5qq3[176#8:1],,,,,,7p1[176#8:1]/8>3[176#8:1],,,,,,8b<5-1[176#2:1]/4b>1-5[176#2:1],,,,,,,,,,,
{16}2,2,4,4,5,5,7,7,8,,2h[16:3]/1V74[176#2:1],,,,,,
{16}2h[8:1],,,,2,,18,,76,,34,,18,,{24}3<7[176#16:6],4,2h[24:9],
{16},,,,,,,,1-5[176#8:1]/8,,,1/3-8[176#8:1],,,3/7<1[176#4:2],,
{16},7h[16:6],,,,,,,,7,6,5<5[176#32:14]*>1[176#32:7],,,,,
{16},,,,,8-4[176#8:1],,,8/6-1[176#8:1],,,65,,,,
4-8[176#8:1]/5,,,4/2-5[176#8:1],,,2/1<5pp4[176#8:5],,,1,,,3,,2,2,,
{16}1,,2,,1,8,2,5,3,4,1,8,5,6,2q7[176#16:3],,
{16},,,,8,3,4,2,5,3,6,4,8h[16:3],,,7<4[176#4:1],
{16},,17,,8,8,,2/1<6[176#8:1],,3,,,,2,4,3,
5,1,7,3>8[176#8:1],3,,5V74[176#4:1],,,5,,3,,2,12,,
{16}3/8-6[176#16:2],,,28,,,5bx/4b-8[176#8:1],,,6h[16:3]/4V25[176#4:1],,,,,7,,8,,
{16}1bx/5bx-1[176#8:1],,,3h[16:3]/5V74[176#4:1],,,,,
2,,1,,8>4[176#4:1],,,4pp2[176#8:3],,,7,,,,8p2[176#16:8],,8<5[176#16:6],,,,,,
{16},,,,4,5,3h[16:3],,,8<5[176#8:1],,,81,,{24}1>7[176#8:3],,,
{16}4qq8[176#8:4],,,,,,,,{16}7,,6,,5,,4b/2b,,
{16},,8,1>4>1[176#4:1],7,,1b/6b,,,,7,18,,2x-5[176#8:1]/4x-7[176#8:1],,,2x-8[176#8:1]/4x,,,2x,,,
{16}1bx/5b-1[176#8:1],,,3h[16:3]/5pp4[176#16:5],,,,,2,,1,,
{16}8bx/4bx-8[176#8:1],,,6h[16:3]/4qq5[176#16:5],,,,,
7,,8,,1<5[176#4:1],,,5qq7[176#8:3],,,2,,,,1q7[176#16:8],,5q3[176#16:6],,,,,,
{16},,,,8<4[176#16:3],,4pp6[176#16:4],,,,,,3,,2,,
8/1>4[176#8:1],,7,,,,5x>2>5[176#16:4]/6x,5x/6x,,,8,8h[16:3],,,,,
{32}3,4,{16}3,2,5,6,4,3,6,7,3,2x,
5x/2xv3[176#16:1],,6x,6xv7[176#16:1],,1x,1x-5[176#16:1],,6x,6x,,8h[64:1],,
{32}3,4,{16}3,5,2,3,6,5,{16}1,7,3,1,5h[16:2],,8,5h[16:2],,7,8,1,2b/6b,,78,,1,
{16}5h[8:1],,3,5h[8:1],,4,,{16}78,16,,34,34,,5h[16:2],,
{16}1x`2x,,,1x/8x`2x,,,1x`2x/8x`7x,,3,,6h[16:3]/4,,,3,,{24}1,2,3,{16}7,5,6,4,5,3,6z2[176#8:3],4z8[176#16:5],,,,,,,,,
{16}2h[16:3]/1,,,8,,,6,4,5,1,{32}7,8,7,,{16}1pp2[176#3:1]*qq5[176#3:1],,,,
{16},,,,,7x,5,6,3,4,{32}2,1,2,,
{16}38,,8,5,6,3,4,1,5,3,8,{32}5,6,{16}5qq3[176#4:1]*<8[176#4:1],,,,,,,,
{16},12,,3,5,4,6,78,,16,,8-4[176#8:1],,,8/6-1[176#8:1],,,65,,,,
4-8[176#8:1]/5,,,4/2-6[176#8:1],,,2/1<5[176#16:4],,,5pp1[176#16:7]*qq4[176#16:7],,
{16},,,,,,,,,8,8h[16:4],,6x,,4x,,2,4,3,5,1,7,8,6,2,1,3,8,4,7,5,6,
{16}1,4,3,8,5,6^3[176#8:1],,,,,,1,2,34,,{32}6,5,6,,
{16}47,,1<6[176#8:1]/8,2h[16:3],,,,,3>8[176#8:1],3,,5V74[176#4:1],,,5,,3,,12,12,,
{16}3/8V64[176#16:3],,,28,,,1h[16:8],,,7h[16:5],
{16},,,,,,2,,3h[16:8],,,5h[16:5],,,,,,,4,,5h[16:3],,,7h[16:3],,,1h[16:4],,,,6<4[176#8:5],,
{16}5h[16:8],,,,,,,,,,{24}8,7,6,{16}5,,1,1,
{16}5h,,1,1,5h,,2,2,6h,,3,3,7h,,4,4h,4x-1[8:1]*-7[8:1],,,,
{16}4b,,,,{16}8,1>4>1[176#4:1],7,,1b/6b,,,,7,18,,2x-5[176#8:1]/4x^7[176#8:1],,,2x-8[176#8:1]/4x,,,A2f,,,
{16}1bx/5b-1[176#8:1],,,5pp6[176#16:4]*qq4[176#16:4],,,5,,,,B6/C/B2,,
{16}8bx/4bx-8[176#8:1],,,4qq3[176#16:4]*pp5[176#16:4],,,4,,
,,B7/C/B3,,2>5[176#4:1],,,5qq7[176#8:3],,,8,,,,1-4-7[176#16:8],,5-8-3[176#16:6],,,,,,
{16},,,,8<5[176#16:3],,4>1[176#16:3],,,,,,6,,7,,
1/8<5[176#8:1],,2,,,,4x<7<4[176#16:3]/3x,4x/3x,,,1,1h[16:3],,,
{16}7-4[176#8:1]*-2[176#8:1],,,A7f,,,,,{8}12,{16}8<5[176#8:1]*>3[176#8:1],,,A8f,,,,,
{8}46,{16}1-7<6[176#16:3]*-3<4[176#16:3],,,A1f,,,,,56,,7,5,6,2,4,3,5,4,6,
{16}1bx>6[176#8:3],,,4bxqq8[176#8:3],,,,,{8}Cf,{16}7bx<2[176#8:4],,,4bxpp8[176#8:3],,,Cf,,
{16},,{16}1bx-5[176#8:1],,,4bxw8[176#8:1],,,,,,,
5x,2,5,4x,7,3,1x,4,6,7xh,5,5,1xh,3,3,7xh,5,5,1xh,3,5,8xh,6,
{32}4,,1xbh,,{24},6x,3x,{32}5x,4x,5x,4x,{16}5,3,4,6,5,2,3,{64}8x`B2,C,B6,
