&title=Gimme×Gimme
&artist=八王子P × Giga feat.初音ミク・鏡音リン
&first=0
&des=Ru1PNa×Antares
&des_5=Ru1PNa×Antares
&clock_count=4
&lv_5=13+
&inote_5=(105){1},,
{8}Ch[32:3],B2,{12}6,E3,{96},,,,,,,,{32}7h[32:1],,,,,,,B8,{8}8x,2,
Ch[32:3],B7,{12}3,E7,{96},,,,,,,,{32}2h[32:1],,,,,,,B1,1xs5[8:1],,,6bx,8bx,,,7bx,
1bx,{64},,,,B8,B1,{16},,{12}7h[32:9],3,{24},,{8}4-1[16:1],,,6,
5/3,1xh[64:1],{16}6<3[4:1],1xh[64:1],{32},,,,,,,,,,,,,,,6b,3b,,,2b,
{8}8bv5[16:1],7,8/4-2-6-8[4:1],3,{2}4,
{8}1p5[8:1]/7<5[8:1],8,7q3[8:1]/1>3[8:1],C,{4}7/1,{32}4-2[8:1],,,6b,2b-6[8:1],,,5b,
{4}4b,{8}7-1[8:1],7,7/2-4[8:1],2,2/8,7-3[8:1],
{32}1-5[8:1],,,7h[32:1],,,,1h[32:1],,,,,,,,,{8}7/5h[32:3],8/4h[32:3],{32}1h[8:1]/3-7[8:1],,,2bh[8:1],,,,,{8}3bx-5[8:1],
2,3/6-2[8:1],7,{2}6/1-7[8:1],
{8}4/6-4[8:1],7,6/3-7[8:1],2,{2}3/8-2[8:1]*v3v6b[4:1],
{8}4-8[8:1],3,5-7-1-3[4:1],6,{2}3v6[8:1],
{8}7/4-8[8:1],3,4/7-3[8:1],{32}6,,,2-6[8:1],,,,1,,,,,,,,,{8}7h[32:3],
{32}3,,,7,5,,,6,4-1[8:1],,,7,5,,,6,4,,,,,,,2,{8}6q3[8:1],7/1,
{4}6/2h[4:1],{32}8h[8:1],,,,,,,4,6,,,2,8,,,3,5p4[4:1],,,1,7,,,4,
5x,,,,,,,E5,2xq3[4:1],,,1,{8}4,{32}2x,,,,,,,E3,{4}6x-1[8:1],
{32}6h[32:7],,,,,,,,,,,8,{8}B2,{32}1/8v5v2b[4:1],,,2h[8:1],{8}7,{4}8,
{8}3-8[8:1],2,3/4-7[8:1],5,4/A3,{32}B2,,,E1,,,,,,,,,{8}4/5-2[8:1],
3,6/5-8[8:1],7,{32}A4/5p1p5b[4:1],,,E3,B3,,,B1,,,,,,,,,{8}3-7[8:1],
4,3/5-1-5[4:1],4,{32}B3/5>7b[4:1],,,B7,,,,E3/B3/E4,,,,,,,,,{8}4b-2[16:1],
4-6[16:1],{4}4-7v4b[4:1]*-1v4b[4:1],{2}4x-8[16:1],
{8}7b/1b-5[8:1],{32}6,,,1x,{8}8-4[8:1],{32}7,,,8,{8}2-5[8:1],{32}3,,,2,{8}7-4[8:1],6,
7b/3-8[8:1],{32}2,,,3,{8}6-4[16:1],{32}6-8[16:1],,,3,6x-2[32:3],,,1-5[32:5],6x,,,3,{4}6x,
{8}6b<8[8:1],{32}5,,,6,{8}2x>4[8:1],{32}5,,,2,{8}6x,7,5-3[16:1],5-7[16:1],
5-2[16:1],5-8[16:1],5-1-3-7[8:3],5,5,6,{4}8h[4:1],
{8}1b-4[8:1],{32}7,,,6,{8}1-6[8:1],{32}6,,,5,{8}1pp5[4:1],{32}5,,,4,{4}1,
{8}8b<5[8:1],{32}5,,,4,{8}8-4[8:1],{32}4,,,3,{8}8>5[4:1],{32}3,,,2,{8}8-4b[16:1],1x,
8bx,{32}7h[32:3],,,5v2b[16:1]*v8b[16:1],{8}6h[32:3],5h[32:3],,1h[32:3],1v4[8:1]/5-8[8:1],4/8,
,,3/7,6/2,1/5s1b[8:1],7/3,{64},,,,,,,,,,,,,,,,8b/1b-5b[2:1],
7x/2x,{32}6x/3x,,,,,,3x,{48}8x,7x,{96},,,,,{32}3x,{48}8x,7x,{96},,,,,{32}3x,{48}8xp1b[8:1],7x,{4},{16},,,{64},{192},{64}1b/8bs4b[2:1],
7/2,{32}6/3,,,,,,7x,{48}3x,2x,{96},,,,,{32}7x,{48}3x,2x,{96},,,,,{32}7x,{48}3x,2x,{96},,,,,,,,,,,,,,,,,{32}1xh[96:23],{96},,,,,,,,{24}2x,3x,{12}4x,
{64}1bx/5bx-1b[2:1],2x/6x,{32}3x/7x,,,,,,6x,{48}4x,3x,{24}2xh[96:5],{48},,6x,7x,{12}8xh[96:5],{48}4x,3x,{24}2xh[96:17],{4},{96},{32}3,{8}7h[8:1],
{32}1-4<5[8:1],,,,,,,,,,,,,,,6x,{48}B4/5x-8[16:1],B3,{96},,,,,{32}7x,{48}6x/B3,B2,,,,,{24}E1,E2,E3,E4,E5,E6,
{64}7bx,6x,5x,4x,,,,,,,,,,,,,{8}5/3,8/C,6/4,1/C,3/5,{96}7,1x,{16},{64},,{96},{64}8bx-4[16:1],
1x,2x,3x,,,,,{8}7,6-2[16:1],5,4-8[16:1],3,2w6b[16:1],1/3,
{4}2b/B6/B5/Cf/B7/B2,{8}6/4-6[16:1],3,4/2-4[16:1],1,2/8-2[16:1],7-3[16:1],
8-4[16:1],7-5[16:1],{4}8>4[8:1],{32}D8,A7,,A6,,A5,{64},,,,6x/3x,7x/2x,{32}8x/1x,,,,,,,
{8}7b/2bq6[8:1],{24}8,,2,{8}7p3[8:1],{24}1,,7,{8}2v5[8:1],{24}7v4[8:1],,2,{8}2,7,
3v6[8:1],{24}7,,3,{8}8-4[8:1],{24}1-3[8:1],,8,{8}8-6[8:1],1-5[8:1],8,1,
7-4[8:1],{24}2,,7,{8}1-6[8:1],{24}2,,1,{12}3-8[8:1],{24}2,1,,,{8}3/5-7[8:1],5-3[8:1],
5-8[8:1],5-2[8:1],5-1-5[4:1],5,{4}5w1[8:1],B5f/E6/E5,
{8}7/1>4[8:1],{24}7,,8,{8}1<6b[8:1],{24}8,,2,{8}1pp5[4:1],{24}2,,8,{8}1,7,
{12}8-5[8:1],{24}2,1/7,,,{8}8-3b[8:1],{24}1-7v5-2[3:1],,7,{2}8,
{8}4h[8:1],{24}8,,1v4[8:1],{12}7,{24}8,6,,,,,,8,,7,{12}1pp1qq1[8:3],{24}8,2,,,{2}1b,
{8}2bv3b[8:1]`6v7[8:1],6b`2,,,7b/2b>5[8:1],
{24}8,,2,{8}7p3[8:1],{24}3,,7,{8}2,{24}1>7b[8:3],,8,{12}6,{24}1,5<3[8:3],,,{8}Cf,
1>7b[8:3],Cf,5<1[4:1],Cf,1,{4}Cf,
{8}2/7<4[8:1],{24}1,,7,{8}2q6[8:1],{24}6,,2,{8}7,{24}8<3[4:1],,7,{12}2,{24}8,3x>6b[4:1],,,{8}Cf,
6x>1[4:1],Cf,1x<4b[4:1],Cf,4x,{4}Cf,
{8}7/3v6[12:1],{24}8,,3,{8}7v2[12:1],{24}5,,7,{8}3,{24}1,,4,{8}1>5<5b[8:3]*>5<5<5[8:5],5<5<5<5[4:3],
Cf,1x,Cf,1x,Cf,1x,{4}Cf,
{8}7/3,{24}8h,,4,{12}6h,{24}2,4h,,8b/4h,,,,5b/1h,,5,{12}3h,{24}7,5h[12:1],,,4bv1b[12:1]`8b-5[12:1],
,,,,4`8,,,,,,,{8}7-3b[12:1]`6b-2[12:1],7b`6,{64}E7,B7,C,B2,{16}E3,{48},,,,,,{12}1b,
{48}E7/B7,B6,{24}B5,,3,{12}4x,2h[24:1],{48},,,,7x,8x,,,,,,,,,{24}1x`6x,,,,{8}2x,
{12}8,{48}E3/B2,B3,{24}B4,,6,{12}5x,7h[24:1],{48},,,,2x,1x,,,,,,,,,{24}8x`3x,,,4bx,1bx,,2bx,
{8}8x-4[8:1],7,6-2[8:1],5,{2}4w8[8:1],
{8}1-5[8:1],2,3-7[8:1],4,{6}5-1[12:1],{24},,,,8bx,2bx,,4bx,
{1},{4},,,{16},{48},{24}6b/2b,
7b<6-4[16:1]`1b>2-4b[16:1],,7bh[24:1]/1bh[24:1],
{96},,,,,,,,,,,,,,,{32}B5/E5/B4/B3/E4/A4,
E
