&title=War in the Mirrorworld
&artist=Aoi
&first=0.25
&des=便娘Collection 精神分析学认为人格的发展会经过“肛欲期”,幼儿通过粪便的保留和排出获得满足感,“肛欲期”人格发展障碍可能造成强迫型人格障碍或性偏离。
&lv_5=14+
&inote_5=(171)
{1},
{32}7bp4[1:1]/3h[32:16],,,,,,,,
{8},,,,,,2,2,,,1,,,,5/2q5[1:1],,,,7,,,,8,8,,,64,,,,
3h[8:1]/4,,3h[8:1],,3h[8:1]/1,,3h[8:1],,
2h[8:1]/6,,2h[8:1],,2h[8:1]/5,,2h[8:1],,4/3h[8:1],5,6,7/4,,8,5,7,
{16}64,3,2,1,7,6,5,4,
{8}1b,2,73,64,
5-3[8:1],,7,7,
6-4[8:1],2,6,,
{16}2-4[8:1],,4,1,5,,,,5-1[8:1],,,,65,,,,
7-5[8:1],,,,3,,3,,8-4[8:1],,2,,8,,,,4-6[8:1],,2-4[8:1],,,,,,7,,4,,6h[8:1],,
{24}5,4,3,
{8}8-6[8:1]/2,8,3-1[8:1],3,5-3[8:1],5,1,
{16}2,2,
{8}4-6[8:1],4,2-4[8:1],2,7,6-8[16:1],5b,6,
{16}2,1,3,8,4,7,5,6,8,7,1,6,2,5,3,4,2s6[4:3],,,,7,,7,,7,,,,3b,,,,
{8}8>3[8:1],,8,4V25[4:1],1,4,6,
{16}7,7,3h[4:1],,,,4,,2,4,3h[8:1],,4,3,7h[8:1],,5,6,3h[8:1],,,,
4-7[8:1],,4,,1-4[8:1],,2,,6-1[8:1],,7,,2-5[8:1],,4,,8-4[8:1],,6,,
1b<6[8:1]*>4[8:1],,,,,,,,5b,,,,2>5[8:1],,6,,2,,7,,5,,8,8,2,,3/5-1[8:1],,6,,5,,
7,,7,2,8h[8:1],,3,7,4-6[8:1]*-8[8:1],,,,4,,,,
7-1[8:1],,1-5[8:1],,7,,2,,3,,64,,7,3,7,3,8b-4[8:1]/4b-2[8:1],,,,,,,,
{16}5,,3h[4:1],,7,,6h[8:1],,1h[8:1],,6,7,8,2,3,4,
65,,4h[4:1],,8,,6h[8:1],,2h[8:1],,5,6,7,1,2,3,
64,,3h[8:1],,7-3[8:1],,2,,7-5[8:1]/1-5[8:1],,,,71,,,,
2b,,6,5,8b,,3,4,1b,8,2,7b,4,,5b-1[16:1]/3b-7[16:1],,,,,,,,
8h[8:1],,2,,3,2,1,7,6,5,42,,7-3[8:1],,2,,7b,,2z6[4:1],,
{32}4,5,6,7,8/2b,,,,,,,,
{8}7,5,83,2,
{16}4,3,5,2,6-3[8:1],,,,6h[4:1],,,,1bz5[8:3],,7z3[4:1],,,,,,,,,,
{8}42,5,64,3,8,5,7,
{16}7,4,6h[8:1],,5,6,,6,3,,3,4,,4,2,,2,4,3,,4,,53,,2,,71,,6,5,7,,73,,
3,4,3h[8:1],,6,5,7h[8:1],,3,4,2,5,1,6,5,7,
{8}4b,7,3,5,2,4,2,
{16}2,5,3h[8:1],,4,3,,3,6,5,7h[8:1],,5,7,,3,4,2,
{8}5,73,4,62,5,
{16}3,7,3,,82,,3h[16:1]/7,,7h[16:1]/3,,64,,3,,2h[16:1]/6,,6h[16:1]/2,,5,4,5,3,
8b-3[8:1],,7,,4-1[8:1],,5,,4-6[16:1]/7-5[16:1],,,7/4<3[4:1],,,,,,,5,,6,,74,,
3,2,6,5,3,2,7,6,
{8}51,2,73,6,
{16}6,5,,5,8,,2,8,3h[8:1],,4,3,6h[8:1],,5,6,4,7,3,8,2,,7h[8:1]/1,,
5b,6,5,6,4,6,4,6,3,6,3,6,2,6,1h[8:1],,4b,3,4,3,5,3,5,3,6,3,6,3,7,3,8h[8:1],,
5b,4,3,2,8b,7,6,5,14,2,63,4,
{32}8b,1,2,3,4,5,6,7,
{16}8,,2,,4,,6,,5,7,5,7,4,6,4,6,3h[4:3],,,,,,,,,,,,5,,5,,4/6h[4:3],,,,,,,,,,,,
{8}4,3h[8:3],,,4,5h[8:3],,,3,2h[8:3],,7,6h[8:3],,,5,4,3,
{16}6h[4:3],,,,,,,,,,3,,4,,4,,5/3h[4:3],,,,,,,,,,
{8}5,6h[4:1],,4h[8:3],,,7h[8:3],,2,3h[4:1],,4,5,6/1z5[4:1],,,,8b,,
7/5,5,7,4,7,3,7,
{16}7,6,25,,
{8}4,2,4,2,5,2,
{16}2,3,4/7,,8,,8,,7,5,6,,4,,4,,6,5,7,,7,,1,,1,,4,,2,,5,,36,,
75,,7,,71,,7,,74,,7,,2,6,3,5,2,,2,,82,,2,,42,,2,,4,3,5,2,8,7,6,5,2,3,4,5,
1,8,7,6,
{24}2,1,8,7,6,5,4V25[4:1],,,,,,
{8}5-8[8:1],,8V62[4:1],,,,8b,7,
{16}2-5[8:1],,3,8,2,,7,,7,8,6,4,1<6[8:1],,8,2,1>4[8:1],,2,,71,,5,5,3,,82,,
8<5[8:1],,73,,8,,3,3,4>1[8:1],,52,,4,,8,8,2>5[8:1],,1<6[8:1],,2,,1,,
3,4,2,6,5,7,4,8,2b,,7,,5-2[8:1],,4,7,5,,8,,8,2,5,3,
7-5[8:1],,8,1,7,,4,,3-1[8:1],,2,4,3,,7,,6>3[8:1],,8,8,6,,1,,2<7[8:1],,4,4,2,,5,,
6-1[8:1],,2-5[8:1]/8,,64,,2,,8-5[8:1]*-3[8:1],,26,,8b,,,,
{8}1b,,
{16}7-4[8:1],,6,1,7,,2,,2,1,3,5,8>3[8:1],,1,7,8<5[8:1],,7,,28,,4,4,6,,17,,
1>4[8:1],,26,,1,,6,6,5<8[8:1],,47,,5,,1,1,7<4[8:1],,8>3[8:1],,7,,8,,
6,5,8,2,4,3,7,5,6b-3[8:1],,,,3pp6[8:3],,,,1b,,,,,,2,,
73,,,5qq2[8:3],,,6,,7b,,,,,,
{32}1,8,7,6,
{8}53,2,64,7,
{16}3,5,1,7,
{32}4,3,2,1,7,6,5,4,
{16}8,8,4,4,2,2,6,6,3,3,7,7,1-6[8:1],5,3,7,1bs5[1:3],
