&title=轆轤首
&artist=かねこちはる
&first=0
&lv_5=14+
&des_5=TraNsfor-Mai "New"
&inote_5=
(218){4},,,,4h[8:1],
5h[8:1],3h[8:1],6h[8:1],
5h[8:1],4h[8:1],6h[8:1],3h[8:1],
4h[8:1]/5h[8:1],5h[8:1]/4h[8:1],3h[8:1]/6h[8:1],6h[8:1]/3h[8:1],
{8}4,5,4,5h[4:1],,Ch[4:1],,,{4}5h[8:1],
6h[8:1],4h[8:1],3h[8:1],
5h[8:1],4h[8:1],6h[8:1],3h[8:1],
4h[8:1]/6h[8:1],5h[8:1]/3h[8:1],4h[8:1]/5h[8:1],6h[8:1]/3h[8:1],
{8}4,5,4,5,3,6,3,6,
2,7,2,7,{4}1,8/1-5[8:1],
{1}1b/Ch[4:7],
,B2/B3/B7/B6/Ch[4:7],
{8},,,,,,,,6h[8:3],
4,4,5h[8:3],3,3,4h[8:3],2,
2,3h[8:3],1,1,2h[4:1],8,{4}8,
{8}4h[8:3],6h[16:1],6h[16:1],5h[8:3],7h[16:1],7h[16:1],6h[8:3],8h[16:1],
8h[16:1],7h[8:3],1h[16:1],1h[16:1],{4}8-4[8:1],8b/Cf,
{12}7,6,5,7,6,5,1,2,3,1,2,3,
8,7,6,8,7,6,2,3,4,2,3,4,
7,6,5,1,2,3,8,7,6,2,3,4,
1,8,7,3,4,5,8-4[8:1],7,6,8b,,,6,
7,8,6,7,8,4,3,2,4,3,2,
5,6,7,5,6,7,3,2,1,3,2,1,
6,7,8,4,3,2,5,6,7,2,1,8,
{2}4-8<5[2:1],Ch[4:1],
{4}2-4[8:1],2/7-3[8:1],7/1-5[8:1],1/4-6[8:1],
4/8>3[8:1],8/7-2[8:1],7/4-8[8:1],{16}4/8,7,6,5,
{8}4/2,2,{4}2-6[8:1],2/8<5[8:1],8/4>1[8:1],
4/7-3[8:1],7/8w4[8:1],8b,B1/B2/B3/B7/B6/B5`C,
7-3[8:1],7/1>4[8:1],1/5-8[8:1],5/2-6[8:1],
2/1<6[8:1],1/4-8[8:1],4/5-1[8:1],{16}5/1,2,3,4,
{8}5/7,7,{4}7-3[8:1],7/4-2[8:1],4/5-1[8:1],
5/8-2[8:1],8/6,{16}E4,E5,E6,E7,E8,E1,E2,E3,
7h[8:1]/E4,,,2h[8:1]/B5,,,{8}4/C,{16},,4,3,2h[8:1]/E6,,,7h[8:1]/B4,
,,{8}5/C,{16},,7,6,{8}5/B2/E2,E4/B4,E6/B6,E8/B8,
{16}3,2,{8}1h[8:1]/B6,{16},8h[8:1]/E4,,,{4}2/E5,{16}6,7,{8}8h[8:1]/B3,
{16},1h[8:1]/E6,,,{4}7/E5,{16}2,3,{24}4/E7,E6,E5,E4,E3,E2,E1,E8,E7,
{16}1h[8:1]/E6/D6,,,2h[8:1]/E7/D7,,,{8}3/D8/E8,{16},,8,7,6h[8:1]/E2/D2,,,7h[8:1]/D3/E3,
,,{8}8/D4/E4,{16},,1,2,{12}3/E8,E7,E6,E3,E4,E5,
{16}6,5,{8}4h[8:1]/E1,{16},2h[8:1]/B6,,,{4}7/E4,{16}2,1,{8}8h[8:1]/E5,
{16},6h[8:1]/B2,,,{4}3/E8,{16}7,6,{24}5/E4,E5,E6,E7,E8,E1,E2/D2,E3/D3,E4/D4,
{1}E5/D5/Ch[1:2],
{4},,,,,7>3>7[4:3],
,4,
{8}5,4h[16:1],4,6,{4}6qq4[4:1]*pp8[4:1],6,
A4/A8,3>7>3[4:3],,6h[8:1],
{8}5,5h[16:1],5,4,3,2/4,1/5,8/6,
{4}7
,6-8-2<6[4:3],,5h[8:1],
{8}4,4h[16:1],4,5,{4}5v8[4:1]*v2[4:1],5,
A8/A2,3-1-7>3[4:3],,4h[8:1],
{8}5,5h[16:1],5,4>8[4:1]*<8[4:1],,4,,,{4}1-3[8:1],
8h[8:1]/1b-5[8:1],8h[8:1]/1b-3[8:1],8h[8:1]/1b-5[8:1],
7h[8:1]/1b-3[8:1],7h[8:1]/1b-5[8:1],7h[8:1]/1b-3[8:1],7h[8:1]/1b-5[8:1],
6h[8:1]/1b-3[8:1],1b/6h[8:1],{16}7,6,5,4,{4}3-7b[8:1],
3/2-6b[8:1],2/1-5b[8:1],1/8-4b[8:1],8/7-3b[8:1],
{8}7/1,1,{4}1-3[8:1],5h[8:1]/1-5[8:1],{16}1/5,6,7,8,
{4}1h[8:1]/4-1p5-8-3b[4:3],8h[8:1],7h[8:1],6h[8:1],
{8}5,5,{12}3,4,2,6,5,7,{24}A3/E4,A4/E5,A5/E6,A6/E7,A7/E8,A8/E1,
{4}1x-5[8:1],1-7[8:1]*-6[8:1],1-3[8:1]*-4[8:1],1w5b[8:1],
{2}D1/D2/A1f,{8}2b/7b,2b/7b,{4}2b-4[8:1]/7b-5[8:1],
7/2v5[8:1],{8}2/8,{16}8,7,{4}6-2[8:1],6/1-3[8:1],
{8}1/7,{16}7,6,{8}5,{16}1,2,3/A8/E1,A7/E8,A6/E7,A5/E6,{4}A4/E5/Ch[4:3],
{1}8-4<7[2:1],
{8}2/8-4[8:1],{16}2,3,{8}4/8,{16}1,2,{12}3,3,3,6,6,6,
{4}4-8[8:1],{16}4/7v2[8:1],6,{8}5,{16}7/2w6[8:1],3,{8}4,{4}B1/C/B3/B6,
{8}3,4,5,6,{16}3,4,5,6,7,8,1,2,
{1}Cfh[1:1]/3-1-7>5b[4:3],
,E4,
E5,
E6,
6-2<7[1:1],
7-3<6[1:1],
6<6[4:5],
Ch[4:3],
{4}5h[2:1],{8}4,4,{16}E4,E5,E6,E7,E8,E1,E2,E3,
{4}6h[8:3]/E4,{8}5,5,{16}A2,E3,E4,A4,B1,C,B5,A5,
{4}7h[2:1],{8}8,8,{16}E1,E8,E7,E6,E5,E4,E3,E2,
{4}6h[8:3]/E1,{8}5,5,{16}A8,E8,E7,A6,B1,C,B5,A5,
{4}7h[4:1],{8}1,1,{16}E3,E4,E5,E6,E7,E8,E1,E2,
{2}E3/C,{16}3,7,3,7,{4}3-7[8:1],
{1}3b/Cf/1bw5b[4:13],
,,,{8}6h[8:3],
4,4,5h[8:3],3,3,4h[8:3],2,
2,3h[8:3],1,1,2h[4:1],8,{4}8,
{8}4h[8:3],6h[16:1],6h[16:1],5h[8:3],7h[16:1],7h[16:1],6h[8:3],8h[16:1],
8h[16:1],7h[8:3],1h[16:1],1h[16:1],{4}8-4[8:1],8/C,
{8}3-8[8:1]
,8-6-2[4:1],3,5h[4:1],{16},,,,1,2,3,4,
{8}5-7[8:1],7-3-1[4:1],5,8h[4:1],{16},,,,7,6,5,4,
{4}3h[8:1]/1h[8:1],{16}2,3,4,5,8,7,6,5,1,2,3,4,
{8}7-3[8:1],5,7,1>6[4:1],,1b/7bh[4:1],,,{4}B3/C/B7,
{8}2-6[8:1],6-4-8[4:1],2,8,{16}8,7,6,5,
{4}4/2h[8:1],{8}1-5[8:1],5>8[4:1],1,7,{16}7,6,5,4,
{4}3h[8:1]/7xh[8:1],{16}7/3,8/4,5/1,2,3,4,5,6,{4}7/1<6[8:1],
{8}2-6[8:1],2,4,4w8[8:1],,4b,,3/5,
1-5[8:1],1,8-6[8:1],8,{16}4,3,2,1,8,7,6,5,
{8}4/1-5[8:1],1,2-4[8:1],2,{16}6,7,8,1,2,3,4,5,
{4}6/2-8[8:1],{16}7,6,5,4,7,6,5,4,8,7,6,5,
{8}4/1-5[8:1],1,8w4[8:1],8,{4}C,{32}E4,E5,E6,E7,E8,E1,E2,E3,
{4}E4/C,{8}1v4[8:1],4>7[4:1],1,7,{16}7,6,5,4,
{8}3-7[8:1],1-5[8:1],3,1,{16}8,7,6,5,2,3,4,5,
{4}1h[8:1],{16}2,3,4,5,1,2,3,4,8,1,2,3,
{4}7-3[8:1],{8}7/2,2,{32}8bx,7x,{16}6x,{32},,7bx,6x,{8}5x,{32}6bx,5x,{16}4x,
{8}1-4[8:1],1,6,6,3-7[8:1],3,5,5,
1-3[8:1],8-4[8:1],1,8,{16}E3,E4,E5,E6,E7,E8,E1,E2,
{8}6-2[8:1],6,1,1,{16}3,4,5,6,3,2,1,8,
{8}4-8[8:1],1>4[8:1],4,1w5b[8:1],,1,,7/3,
{16}4,6,4,6,3,5,3,5,{4}2>5[8:1],6b/2b,
{16}7,1,7,1,8,2,8,2,{4}1<6[8:1],5b/1b,
{16}3,5,3,5,4,6,4,6,{4}5-1[8:1],7b/5b,
{16}2,4,2,4,{8}3h[16:1],3h[16:1],{16}7,5,7,5,{8}6h[16:1],6h[16:1],
2-5[8:1]
,2,6-1[8:1],6,3-8[8:1],3,{16}7,6,5,4,
{8}3-6[8:1],3,1-4[8:1],1,7-2[8:1],7,{16}3,4,5,6,
{8}7<4b[8:1],7,1-5b[8:1],1,2>5b[8:1],2,{16}7,8,1,2,
{32}3/E1,E8,E7,E6,E5,E4,E3,E2,E1,E8,E7,E6,E5,E4,E3,E2,{4}E1/Ch[32:0],B7/B6/E7/B2/E3/B3/C,
{16}4,3,2,1,{8}5/8-3b[8:1],8,{16}4,5,6,7,{8}4/8<5b[8:1],8,
{16}5,4,3,2,{8}1-5b[8:1],1/4,{16}5,6,7,8,{8}3/1<6b[8:1],1,
{16}4,3,2,1,8,7,6,5,{32}4/E1,E2,E3,E4,E5,E6,E7,E8,E1,E2,E3,E4,E5,E6,E7,E8,
{1}E1/Ch[2:3],
{3},,
,
{16}7h[8:1]/E4,,,2h[8:1]/B5,,,{8}4/C,{16},,4,3,2h[8:1]/E6,,,7h[8:1]/B4,
,,{8}5/C,{16},,7,6,{8}5/B2/E2,E4/B4,E6/B6,E8/B8,
{16}3,2,{8}1h[8:1]/B6,{16},8h[8:1]/E4,,,{4}2/E5,{16}6,7,{8}8h[8:1]/B3,
{16},1h[8:1]/E6,,,{4}7/E5,{16}2,3,{24}4/E7,E6,E5,E4,E3,E2,E1,E8,E7,
{1}1bxh[4:7]/E6/D6,
5bxh[4:3],
Ch[4:3],
{16}4,6,4,6,3,7,3,7,2,8,2,8,1,7,1,7,
2,3,4/8,7,6/1,2,3/7,6,{24}5/8b,1,2,3/8b,7,6,5/8bz4[8:1],1,2,3/8b,7,6,
{1}5/8b/Cf,
E
