&title=一秒的梦
&artist=芹菜猪肉大馄饨
&first=0.05
&des=
&des_5=Solititude Dream
&lv_5=13
&inote_5=(137.01){4},,,,,,,,,,,,{1}Cfh[1:1],
1b,
{4},E4,,,,,,6h[4:3],
5,4,3h[4:3],4,
5,6h[4:3],{2},{4}5h[4:1],
4h[4:1],3h[4:1],6h[1:1],
3h[4:1],{2},{4}3h,
4h/6h,5h/7h,6h/8h,7bh[4:1],
C,{12}1-5[8:1],8,2,{4}1,{12}1-5[8:1],8,2,
{4}1>4[8:1],7/1-6[8:1],3/1-4[8:1],7/1V75[4:1],
1,3,7/1V37[4:1],1/7,
5,1q4[8:3],1-6[8:1],1b,
E6/B5/E5,{12}1<6[8:1],2,3,{4}1,{12}1<6[8:1],2,3,
{4}1-3[8:1],1/8-4[8:1],8/7-5[8:1],7/1>5[4:1],
5<1[4:1],1,5p1[4:1],1p5[4:1],
5V31[4:1],1V75[4:1],5,2b,
E2/B2/E3,{12}1-5[8:1],2,8,{2}1v4[8:1],
{4},{12}1-5[8:1],2,8,{2}1v6[8:1],
{4},{12}1-5[8:1],2,8,{8}1/7-5[8:1],6,7/2-6[8:1],1,
2/7-4[8:1],8,1-5[8:1],8,{4}1w5[8:1],1b,
,{16}E8,B7,{8},{16}B3,E4,{8},{16}E6,A5,{8},{4}3xh[4:1],
1V75v8-2[4:3],2h[8:1],3h[8:1],
4h[4:3],{2},{4}1h[4:1],
5h[4:1],2h[2:1],6h[4:1],B2/B6/Cf,
{2}2b/6b,{24}1,2,3,4,5,6,7,8,1,2,3,4,
{4}5/1x-5[8:1],1-6-4[8:1]*-4-6[8:1],,7-3[8:1]/3-7[8:1],
{2}7/3,{8}8-2[8:1],2-8[8:1],8-4[8:1],4-2[8:1],
{4}3,1-5[8:1],5x-2[8:1]/1x-6[8:1],1x>5[8:1]/5x<1[8:1],
{2},{4}3h[4:1],4h[4:1],
5h[4:1],6h[4:1],7h[4:1],8h[4:1],
1,1qq1[4:1]*pp1[4:1],{2}1x,
{4}2-8[8:1],2/1qq1pp2b[2:1],,,,{8}2-4[8:1],
1,8-2[8:1],7,6-8[8:1],5,
{4}4,4-2[8:1]*-6[8:1],4,4p4[4:1]*q4[4:1],
{2}4,{8}8-6[8:1],1-5[8:1],8-4[8:1],1,
{4}8w4[8:1],8V62-4[2:1],3,4V68[4:1],
2,3,{8}1-5[8:1],5-1[8:1],1V36[4:1]*V37[4:1],8,
{2},{8}8-5[8:1],5-8[8:1],8-4-6[4:1]*-3-6[4:1],3,
{2},{8}1-5[8:1],5-1[8:1],1-4-6[4:1],7,
{4}6q2[4:1],2>5[4:1],5<7[4:1],8b,
,{8}1h[8:1],8,{16}2,1,{8}2,{16}2,8,{8}2,
7h[8:1],4,{16}4,6h[16:3],{8}4,{4}4,{16}3,5,{8}3,
{16}3,6,{8}3,3h[8:1],6,5h[8:1],3,4h[8:1],7,
7h[8:1],3,{16}2-6[8:1]*-5[8:1],8,{8}2,{4},{12}1qq5[8:3],2,3,
{8}1,3,{4}4,{12}8pp3[8:3],7,6,8,{24},{8}6,
{4}5,{12}6,6,1,6,6,2,6h[4:1],,3,
{4}3,{12}4,4,5,{6}4h[4:1],{12}5,5,{6},{12}6,
6,3,6h[2:1],,3,{2}3h[4:1],
{4}2b/7b,{32}E2,E3,{16},,,{32}E2,E3,{16},,,{32}E2,E3,{16},,,{32}E2,
E3,{16},,,{32}1xV72[8:1],2x,{16},,,{4}1x/6x-3-7[8:1],6x,
,{32}B8,B7,{16},,,{32}B8,B7,{16},,,{32}B8,B7,{16},,,{32}B8,
B7,{16},,,{32}8x-5-7[8:1],7x,{16},,,{4}8x/4x-1-3[8:1],4x,
5xpp5[8:1],5xqq5[8:1],5xpp5[8:1],5xqq5[8:1],
5xpp5[8:1]*pp5[8:1],5xqq5b[8:1],{2},{1}1xqq1[4:1]*pp1[4:1],
1xqq1qq1b[2:1]*pp1pp1b[2:1],
{4},{12}1-5[8:1],8,2,{4}C/1v4[8:1],C,
,{12}8-4[8:1],1,7,{4}C/8v5[8:1],C,
,{12}1/6x,2,3,4/7x,5,6,7/2x,8,1,
2/7x,3,4,5/3x,6,7,{4}8/2x-6[8:1],2/8-4[8:1],
8b,{12}7xh[4:1],1,2,3xh[4:1],8,7,6xh[6:1],2,1,
{4},{12}2xh[4:1],8,7,6xh[4:1],1,2,3xh[6:1],7,8,
{4},{12}6x/3x,6,6,2x/7x,2,2,7x/3x,7,7,
6x/2x,2/6,2/6,1xv4[8:1]/5xv8[8:1],5/1,1/5,{4}5b>2[8:1]/1b<6[8:1],1b/5b,
,{12}1-5[8:1],8,2,{4}1,{12}1-5[8:1],8,2,
{4}1>4[8:1],{8}7/1-6[8:1],8,3/1-4[8:1],2,{4}7/1V75-1[16:5],
{8}1,2,{4}3,7/1V37-1[16:5],{8}1/7,6,
{4}5,1q4[8:3],1-6[8:1],1b,
E6/B5/E5,{12}1<6[8:1],2,3,{4}1,{12}1<6[8:1],2,3,
{4}1-3[8:1],{8}1/8-4[8:1],8,8/7-5[8:1],7,7/1>5[4:1],1,
{4}5<1[4:1],1,5p1[4:1],1p5[4:1],
5V31[4:1],1V75[4:1],5,2b<3[1:6],
,2h[1:1],
E
