&title=ごめんね、いいコじゃいられない。
&artist=沢井美空
&first=-0.24
&des=满舰饰真子
&des_5=满舰饰真子
&lv_5=13
&inote_5=(155){4},,{2}3V52[2:1]/6V48[2:1],
,6V47[2:1]/3V51[2:1],
,3V15[2:1]/8V25[2:1],
{4},{8},6/4,,7/3,,2/6,
{4}4v1[8:1]/8v5[8:1],4b/8b,2/6,{8}3,4,
{2}7-4[8:1]/5V31[16:3],{4}6,{8}7,5/3qq4[8:3],
{4},7,{8}6,6,{4}7-4[8:1]/5V31[16:3],
{8}7,{4},{8}4-7[8:1]/8-3[8:1],,8/4,,5,
{4}6/2,4/7h[4:1],{8}5-2[8:1],{4},{8}8V64[8:1],
,1b,{4},{8}2h[8:3],{4},{8}5h[8:3],
{4},1,{8}6h[8:3],{4},{8}5h[8:3],
{4},8,{8}4h[8:3],{4},{8}6h[8:3],
{4},1,{2}3/4h[2:1],
{8}2,1,{4}8-3[8:1],5,{8}6,7V16[4:1],
,3,{4}2-5[8:1],5,{8}7,8V61[4:1],
,4,{4}3pp2[8:3],{8}8h[4:1],{4},{8}8h[8:3],
{4},3b,{8}5/7h[8:3],{4},{8}4h[8:3],
{4},8,{8}7/3h[8:3],{4},{8}5h[8:3],
{4},1,{8}4/2h[8:3],{4},{8}5h[8:3],
{4},1,{2}6/4h[2:1],
{4}1<6[8:1],3V52[4:1],7,{8}7,8-4[8:1],
,2,{4}1V37[4:1],4,{8}5,6V85[4:1],
,1,{4}1,2V46[16:3],{8}7,8-5[8:1],
,4,3,1v2[8:1],,5,{4}5h[8:1],
{16}3,4,3,4,2,5,2,5,{4}1>4[4:1],4q1[4:1],
1,{8}5,6,{4}4/7-5[8:1],{8}4-7[8:1],2,
8-4[8:1],1,{4}3h[4:1],5<8[4:1],8v5[4:1],
5,{8}4,2,{4}5/1-4[8:1],{8}5>2[8:1],7,
1V35[8:1],8,{4}7h[4:1],4>8[4:1],8<4[4:1],
4,{8}8,8,{4}4/7-4[8:1],{8}4-6[8:1],3,
2-5[8:1],1,{4}8<5[8:1],{8}8,1b-5[8:1],,1,
{4}8bw4[8:1],8b,6/2-5[8:1],{8}7,8qq1[8:3],
{4},{8}4,3,{4}2V84[4:1],{8}6,7v5[4:1],
{4},{8}1,2,{4}3qq4[8:3],{8}6,5pp4[8:3],
{4},{8}3,2,{4}1V35[4:1],{8}7,6v1[8:1],
{4},{8},2-6[8:1]/8-4[8:1],2/8,{4},{8}7-3[8:1]/1-5[8:1],
7/1,{4},{8}2,{4}1/5pp4[4:1],{8}2,3qq4[4:1],
,6,6,7b,,5/7,{4}5/7,
{8}3/8,3/8,,6/5,,3/8,{4}1b/2b,
{8},{24}2,3,4,{4}5/1b,{8}8-4[8:1],8,5-2[8:1],5,
6,7-3[8:1],7,1-6[8:1]*-5[8:1],,1,,7,
{4}4v2[8:1]/8v6[8:1],4/8,{8}1-5[8:1],1,4-7[8:1],4,
3,2-5[8:1],1,8qq1[8:3]*-3[8:1],,8,{4},{8}2q6[8:1],
3,8-4[8:1]*-3[8:1],7,{4}8<3[8:3],{8}2,3q8[4:1],
,8,,2-4[8:1],,2/6-3[8:1],,6/5-1[8:1],
,5/8-4[8:1]*-3[8:1],,8,,2/6,{4}2/6-8[8:1],
6/3-5[8:1],{8}1,1qq6[2:1],,4,3,3,
2,2,1/5,1/5,6/8-4[8:1],8,6-3[8:1],6,
2,2-5[8:1],1,2/8-4[8:1],,8/3-7[8:1],,3/1-4[8:1]*v6[8:1],
,1,,7,8-4[8:1],8,3>8[8:1],3,
5,6-3[8:1],7,6/1q5[8:1],,1/7-3[8:1],,7/5w1[8:1],
,5,,7,2/6v1[8:1],5,3,4-7[8:1]*-8[8:1],
,4,,6/1-5[8:1],,1/4-7[8:1],,4/2-5[8:1]*-6[8:1],
,2,,8V64[8:1],8,2b,2b,7<4[8:1],
7,1b,1b,6,3/7-4[8:1],8,7/1-5[8:1],2,
1/6,7,2/8,3,{24}7,6,{12}5h[6:1],{16},,,{48},{24}1,2,3h[24:7],
{4},{8},{24}5,6,7,{8}8h[2:1],4,3,2,1b,
