&title=ALL☆NIGHTER!
&artist=Turbo feat. Moon Jelly
&first=0.02
&des=炎火村太刀高手
&lv_5=14
&des_5=炎火村太刀高手
&inote_5=
(175){4},,,,(350){1},
(175){12},1x>5p1[6:7],,,,,,,,,,,,,,,,,,,,{4}Cf/B7/B6/E7/B2/B3/E3,
{8}1x-3[8:1],1x,5,5,6-8[8:1],6,4,4,
3-5[8:1],3,{4}8,{8}7-1[8:1],7,{4}4,
{8}3-1[8:1],3,8,8,7-5[8:1],7,8,8,
1-7[8:1],1,{4}4,{8}5-3[8:1],5,{4}8,
{8}1-3[8:1],1,8,8,7-1[8:1],7,5,5,
{4}4>1[8:1],4/7<4[8:1],7/2-6[8:1],{8}1,1,
{16}7,5,{8}7,{16}2,4,{8}2,{16}7,3,6,4,{8}5,1,
{4}7b-5[8:1]/3b-1[8:1],7b/3b,{24}8-4[8:1],1,2,3,,,,,,,,,{8}2/5,
3,6/4,7,8/5,4,6/3,2,
1-3[8:1],1,4,4,5-7[8:1],5,3,3,
8/2,7,6/5,4,3/5,6,7/1,2,
3-1[8:1],3,4,4,5-7[8:1],5,2,2,
8/3,4,7/5,6,5/3,2,1/8,7,
{4}6/4>1[8:1],5/4<7[8:1],4/8-4[8:1],{8}2,2,
{24}3x,5x,3x,5x,,,6x,4x,6x,4x,{48},,,,{16}3,5,4,5,{8}3,8,
2h[8:1],{16}6,6,{8}8h[8:1],{16}4,4,1x<6b[8:1],2x,3x,4x,{4}1b,
3,3,3,3q5[4:3],
3,3,3,3,
6,6,6,6v5-3[4:3],
6,6,6,6,
2,2,2,2>4-8<6[4:3],
2,2,2,2,
{8}4,4,5,5,3h[8:1],{16}6,5,{8}7,{16}2,1,
{8}3xp1[8:3],{4},,{48}D7,A6,D6,A5,D5,A4,D4,A3,D3,A2,D2,A1,D1,A8,D8,A7,D7,A6,
{8}1b/D6,2,4/3h[8:1],6,7/5h[8:1],1,8/4,7,
2h[8:1],5,{16}1-3[16:1],7,,1,,,7,5,{8}6h[8:1],{16}5>2[32:3],5,
,,{8}7,6h[8:1],{16}5-1[32:3],5,,,{8}7,{16}8-4[32:3],8,,2b,
,,{8}1,1,2/4,{16}6,5,,3,{8}4,1b/7b,
8>3[8:1],7,6,5,4<7[8:1],3,2,1,
8-4[8:1],1,2,3,3-7[8:1],4,5,6,
{16}1,8,{8}2,{16}6,4,{8}5,{16}3,4,2,5,{8}3,8x,
{4}2b-5[8:1]/6b-1[8:1],2b/6b,{24}4x/8x-4[8:1],3x/7x,6x/2x,1x/5x,,,{4}Cf,
{8}8b,7,5/6h[8:1],3,2/4h[8:1],8,1/5,2,
7h[8:1],4,{16}8-6[16:1],2,,8,,,2,4,{8}3h[8:1],{16}4<7[32:3],4,
,,{8}2,3h[8:1],{16}4-8[32:3],4,,,{8}2,{16}1-5[32:3],1,,7b,
,,{8}8,8,7/5,{16}6,4,5,3,{8}6,1b/7b,
2-5[8:1],5,2,7,8-3[8:1],3,8,4,
5>2[8:1],7,5,8,6<1[8:1],2,6,4,
{16}3,8,2,6,3,5,4,6,2,7,3,5,{8}1-5[8:1],6x,
1b,{16}7,7,{32}4x,3x,2x,1x,{16}5,5,6x/2x-6b[8:1],7x/3x,4x/8x,1x/5x,{4}Cf,
{8}4x/8xh[8:1],{16}5,7,4,6,3,5,2,2,,5,4,6,,3h[16:3],
,,{8}4,3h[8:1],2,{16}8,1,,7/5,,3/4,,8/2h[16:3],
,,{8}5,8/7,1/6h[8:1],{16}2,4,3,6,5,7,2,1,
,3,{8}4h[4:1],6x,1x,{16}3,5,,6/4,,2/4,,1xh[16:3],
,,4,2,5,3,6,4,7,7,,4,5,3,,6h[16:3],
,,{8}5,7h[8:1],5,{16}8,3,,1/2,,3,{8}5,
{16}6x,5,{8}7,{16}3,4,{8}2,{16}7,1,5,4,{8}6,2x,
{4}5bv8[8:1]/1bv4[8:1],5b/1b,{24}3x,7x,3x,7x,{48},{16}2,{8}8,6x/4x,
{4}Cf/B7/B6/E7/B2/B3/E3,{8}5x,3,5,4,5,3,
5,4,5,3,5,1b,5-8[8:1],1b,
,,4,7,4,5,4,7,
4,5,4,7,{16}2,1,{8}2>5[8:1],8,7b,
,,4,6,4,5,3,4x/2x,
5,4,5,3,5,4,6,7x/5x,
{16}4,5,{8}3,6xh[8:1],{32}4b,3,{16}2,,,{8}5x,6xh[8:1],{32}4b,3,2,1,
,,,,{8}5x,6xh[8:1],{32}4b,3,2,1,{4}8-4b[8:1],8bx,
Cf/B7/B6/E7/B2/B3/E3,{8}4xh[8:1],6,4h[8:1],5,4h[8:1],6,
4h[8:1],5,4h[8:1],6,4h[8:1],8b,4-1[8:1],8b,
,,5h[8:1],2,5h[8:1],4,5h[8:1],2,
5h[8:1],4,5h[8:1],2,{16}7,8,{8}7,5x/4x,2b/1b,
,4x,5h[8:1],3,5h[8:1],4,6,5x/7x,
4h[8:1],5,4h[8:1],6,4h[8:1],5,3,2x/4x,
{16}6,5,{8}7,2xh[8:1],{32}8b,7,6,5,,,,,{8}1x,2xh[8:1],{32}8b,7,6,5,
{8}4,1x,2xh[8:1],{32}8b,7,6,5,4,3,2,1,8,7,6,5,{4}1bx-5[8:1],
6/Cf,6,6,6pp4[4:3],
6,6,6,6,
3,3,3,3-8-4-7[4:3],
3,3,3,3,
7,7,7,7-4<5-1<8-3[4:3],
7,7,7,7,
{8}5,5,4,4,6h[8:1],{16}3,4,{8}2,{16}6,5,
{8}7qq8[16:5],{4},,{48}D3,A3,D4,A4,D5,A5,D6,A6,D7,A7,D8,A8,D1,A1,D2,A2,D3,A3,
{8}8b/D4,6,7/5,2,3/5,8,6/5,3/4,
2h[8:1],8,{16}6/4>1[32:3],4/6,,5b,,,7,8x,{8}6h[8:1],{16}1>2-4[32:3],1,
,,{8}7,6h[8:1],{16}1-5[32:3],1,,,{8}7,{16}8V64[32:5],8,,2b,
,,{8}1,1,3/4,{16}7,5,,2,{8}4,1b/7b,
2V48[4:1],8,2,7,6V84[4:1],1,6,2,
3V51[4:1],5,3,6,7-3[8:1],8,7,2,
{16}6,4,{8}8,{16}3,5,{8}1,{16}7,2,5,4,{8}8,1x,
{4}7b-4[8:1]/3bv8b[8:1],7b/3b,{24}5x/1xw5b[8:1],6x/2x,7x/3x,8x/4x,,,{4}Cf/B1/B5,
{8}8b/2b,4,6/5,2,5/3,8,6/5,3/4,
2h[8:1],8,{16}6/5<8[32:3],6/5,,4b,,,2,1x,{8}3h[8:1],{16}8<7-5[32:3],8,
,,{8}2,3h[8:1],{16}8-4[32:3],8,,,{8}2,{16}1V35[32:5],1,,7b,
,,{8}8,8,6/5,{16}2,5,4,7,{8}1,6b/2b,
3-5[8:1],5-2[8:1],3,6,7-1[8:1],1-6[8:1],7,2,
3-7[8:1],7-1[8:1],3,6,5-8[8:1],2,5,4,
{16}3,7,5,6,3,4,2,7,1,6,3,5,{8}4-8[8:1],7x,
4b,{16}6,6,{32}1x,2x,3x,4x,{16}8,8,3x/7x-3b[8:1],6x/2x,1x/5x,4x/8x,{4}Cf/B7/B3,
{8}5x/1xh[8:1],{16}4,2,5,3,6,4,7,7,,3,4,2,,6h[16:3],
,,{8}5,3h[8:1],4,{16}1,8,,7/5,,3/4,,2/1h[16:3],
,,{8}3,6/5,7/4h[8:1],{16}8,5,6,3,4,1,7,8,
,5,{8}3h[4:1],2x,8x,{16}6,5,,3/4,,5/7,,8xh[16:3],
,,5,7,4,6,3,5,2,2,,6,5,7,,3h[16:3],
,,{8}4,5h[8:1],2,{16}1,7,,8/6,,5,{8}4,
{16}3x,7,1,5,2,4,3,6,5,7,2,8,{8}3,6x/2x,
{4}5b<8[8:1]/1b>4[8:1],5b/1b,{24}3x,7x,3x,7x,{48},{16}4,{8}8w4b[8:1],6x/2x,
{1}Cf/B8/B4,
E
