&title=Multi-Thread
&artist=Mameyudoufu
&first=0.06
&des=TheMineFix
&lv_5=13+
&inote_5=(126)
{1},
{8}
3h[4:1]/5,,7,,6h[4:1]/4,,2,4,
{8}
3h[4:1],,5,6,2,3,4,,
{8}
6h[4:1]/4,,2,,3h[4:1]/5,,7,5,
{8}
6h[4:1],,4,3,7,6,
{16}
2,4,3,5,1h[8:1],,7,1,4,2,5,3,6,4,7,5,8h[8:1],,1,,
{16}
6,8,7,1,8,2,1,3,2<7[8:1],,,,,,,,
{16}
1h[8:1],,7,1h[8:1],,7,1h[8:1],,7h[8:1],,3h[8:1],,5,,4,,
{16}
3h[8:1],,5,3h[8:1],,5,3h[8:1],,7h[4:1],,,,,,,,
{16}
1h[8:1],,,4,2,4,3,5,4,6,5,7,4,6,3,5,2,4,3,4,2,4,3,4,
{16}
3,3,3,3,3,3b,,,
{16}
17,,4,,2-5[8:1]/8,,5-1[8:1],,2,,6,,7h[16:1],,7h[16:1],,
{16}
2,,5,,7-4[8:1]/1,,4-8[8:1],,7,,3,,2h[16:1],,2h[16:1],,
{16}
5b,,2,4,3,5,4,6,5,7,4,6,3h[16:1],,3h[16:1],,
{16}
6,8,7,1,8,2,7,1,6,,4-2[8:1],,6,,4,,
{16}
5,,5,,7-4[8:1]/1,,4-8[8:1],,7,,3,,2h[16:1],,2h[16:1],,
{16}
7,,4,,2-5[8:1]/8,,5-1[8:1],,2,,6,,7h[16:1],,7h[16:1],,
{16}
1h[8:1],,4,2,5,3,6,4,7,5,6,4,5,3,4,2,3h[8:1],,,3<1[16:3],,,35,,,,,,2,2,,,
{16}
28,,5,,1-4[8:1]/7-4[8:1],,4-8[8:1],,17,,,,2,,3,,
{16}
64,,1,,5-8[8:1]/3-8[8:1],,8-4[8:1],,53,,,,6,,7,,
{16}
17,,5,,2h[8:1],,4,2h[8:1],,5,2h[8:1],,8,,4,,
{16}
7h[8:1],,,,1,2,3,4h[8:1],,8,7,6h[16:3],,
{16}
2,3,4,5h[8:1],,7h[8:1],,4h[8:1],,7h[8:1],,3-7[8:1],,7,,3bw7[4:14],,,,
{4},,,,,,,,,,,,,,,
{16}
1,,6,,3h[4:1],,,,5h[16:3],,,3,,,2,,3,,4,,5h[16:4],,,,4,,,3,,,,,,,
{16}
3,,5h[16:4],,,,3,,4,3,,3,4h[8:1],,3,,2,,
{16}
3h[4:1],,,,5,,4,5,,5,4,,
{16}
6,7,8,,2,,4,,3,,6<1[8:1],5,,5,6,,2,,3,,6h[4:1],,4,,3,3,5,4,,4,6,,
{16}
7h[8:1],,5,,6h[4:1],,4,,3,3,6>3[8:1],2,,2,6,,2,,3,,
{16}
5h[8:1],,4,,6,6,4,5,,5,4,6,3h[8:1],,5h[8:1],,7>2[8:1],,5,,7,,5,3,,3,1,,3,,5,,
{16}
7<4[8:1],,3,,7,1,1,3h[16:5],,,1,,2,,3,,6h[8:1],,4,,6,5,6,7,,7,6,,5h[8:1],,4h[8:1],,
{16}
3h[8:1],,5,,3,6,6,4h[16:3],,,7,,5,,,,
{8}
3h[4:1]/5,,7,,6h[4:1]/4,,2,4,
{8}
3h[4:1],,5,6,2,3,4,,
{8}
6h[4:1]/4,,2,,3h[4:1]/5,,7,5,
{8}
6h[4:1],,4,3,7,6,
{16}
7,5,6,4,8h[8:1],,2,8,5,7,4,6,3,5,2,4,1h[8:1],,8,,
{16}
3,1,2,8,1,7,8,6,7>2[8:1],,,,,,,,
{16}
8h[8:1],,2,8h[8:1],,2,8h[8:1],,2h[8:1],,6h[8:1],,4,,5,,
{16}
6h[8:1],,4,6h[8:1],,4,6h[8:1],,2h[4:1],,,,,,,,
{16}
8h[8:1],,,5,7,5,6,4,5,3,4,2,5,3,6,4,7,5,6,5,7,5,6,5,
{16}
6,6,6,6,6,6b,,,
{16}
17,,4,,2>5[8:1]/8,,6/5-1[8:1],,2,,6,,7h[16:1],,7h[16:1],,
{16}
2,,5,,7<4[8:1]/1,,3/4-8[8:1],,7,,3,,2h[16:1],,2h[16:1],,
{16}
5b,,3,5h,4,5h,6,5h,7,5h,6,5h,3h[16:1],,3h[16:1],,
{16}
7,1h,8,1h,2,1h,8,1h,6>4[8:1],,4-8[8:1],,6,,3,,
{16}
2,,5,,2>5[8:1]/8,,6/5-1[8:1],,2,,6,,7h[16:1],,7h[16:1],,
{16}
2,,5,,7<4[8:1]/1,,3/4-8[8:1],,7,,3,,2h[16:1],,2h[16:1],,
{16}
8h[8:1],,7,5h,6,5h,4,5h,3,5h,4,5h,6,5h,7,5,6h[8:1],,,6>8[16:3],,,64,,,,,,7,7,,,
{16}
4/6-8[8:1],,2/8-4[8:1],,6,,2,,1h[8:1],,5,,3,4,2,,1/2>5[8:1],,5/6<1[8:1],,12,,6,,
{16}
3,,3,,5,4,6,,2>5[8:1],,5,,2,,6,6,,3,3,,5h[8:1],,2h[8:1],,
{16}
7h[8:1],,,,8,7,6,5h[8:1],,1,2,3h[16:3],,
{16}
7,6,5,4h[8:1],,2h[8:1],,5h[8:1],,2h[8:1],,6-2[8:1],,2,,6bw2[8:1],,,,
