&title=Aetheric Energy
&artist=aran
&first=0
&des_6=Orange
&lv_6=14
&inote_6=(205)
{1},
{1},
{4}2-5-8[4:3]/7-4-1[4:3],,,,,E1h[4:3],
{8}B2,C,E4,E5,
{1},
{8},
{8}8x,E3h[8:6],,B7,C,E6,E5,
{1},
{4},
{8}E7h[8:6],,B2,C,E4,E5,,,,,,,,,
{4}8h[4:3]/4-1[2:1],,,,
{8}7-5[8:1],8,,2h[4:1],4,4,,1-3[8:1],8,,6h[4:1],4,4,3/7-1[8:1],,,
{8}4,4h[8:1],8,2,5,3-8[8:1],,,5,5h[8:1],1,7,4,6pp1[8:5],,,
{8}5,5,4,4,3qq2[2:1],,,,4,4,5,5,6V48[4:1]b,,,,
{8}1,1,7,7,2,6,3,5,
{12}4,4,4,8,8,8,
{8}2bx/6bxv7-1[4:1]b,,,,3-5[8:1],,35,,7-3[8:1],8,17,,2>5[8:1],1,8,7,
{8}6-1[8:1],,
{8}2-5[8:1]b,,7-4[8:1],,47,,2-6[8:1],1,28,,7<4[8:1],8,1,2,3-5[8:1],,
{8}7-3[8:1]b,,1s5[4:1],,,,6,4,5,3,8-3[8:1],,83,,2,5,4,7,1-5[8:1],,15,,
{8}6,2,8,4h[8:1],
{16}6,5,7,,3,4,2,,
{8}15,26,3/7-3-1[4:1],48,,,
{12}5,5,5,
{8}8bx/4bx-7[8:1],,34,,1-5[8:1],2,13,,
{16}2,4,3,,
{8}45,6,7V51[4:1],8,1,,2V48[4:1],,82,,5-1[8:1],6,75,,
{16}7,8,6,,4>1[4:1]/5v8[4:1],,,,,,,,
{8},
{16}7,6,
{4}1/5-2[8:1],56,
{8}8-4[8:1],7,86,,
{16}7,5,6,,
{8}54,3,2V48[4:1],1,8V62[4:1]b,,A5h[2:1],,,,
{8}3,2>5[8:1],,7,8z4[4:1]b*-3[8:1],,8b,,,,
{8}3hx[4:1]/5hx[8:3],,,3,,3h[4:1]/5h[8:1],,5,3h[8:1]/5h[4:1],,
{8}3,3h[8:1]/5,5,2V46-3-8[4:5]/6,
{2},,7-4[8:1]b,
{8},
{8}7>3[4:1],6,5,4,,
{8}6hx[4:1]/4hx[8:3],,,6,,6h[4:1]/4h[8:1],,4,6h[8:1]/4h[4:1],,
{8}6,6h[8:1]/4,4,37,2V48[4:1],,8,,
{4}1-6-2[4:1],2,4-8-6[4:1],6,
{16}5,4,3,2,1,8,7,6,
{24}5bx-8-5[4:7]b/1bx,E2,B2,B3f,,,
{4},,,,
{4}1,
{8}A2,E3,E4,A4,
{1},
{8},
{8}7,6h[4:1],,
{8}A2,E3,E4,A4,Ch[1:1],,,,,,,,,,
{4}8h[4:1],
{8}A2,E3,E4,A4,Ch[1:1],,,,,,,,
{16}E1/E5,E2/E6,E3/E7,,
{4},,,
{4}2<4[1:1],,7,,8>6[1:1],,3,,1-7-5-3[1:1],,7,,8-2-4-6[1:1],,2,,
{8}2,1-5[8:3],,,8-3[4:1]b,,,,4,5>2[8:3],,,8-4[4:1]b,,,,1,8-3[8:3],,,
{8}5>2[4:1]b,,,,
{1}1s5[2:1]b*z5[2:1],
{8}3,24,,,6,57,,,12,38,,,78,16,,,
{8}35,3h[4:1]/5,,6,71,7h[4:1]/1,,2,35,4h[4:1]/6,,6,7/1,8h[4:1]/2,,2,
{8}3h[8:1]/7h[8:1],,2h[8:1]/6h[8:1],,1h[8:1]/5h[8:1],,4h[8:1]/8h[8:1],,
{8}48,15,26,37,56,78,12,34,
{16}5,1,5,1,6,2,6,2,7,3,7,3,8,4,8,4,
{24}1b,2,3,4,5,6,7-4-1[4:1]b,8,1,2,3,4,5h[2:1],,,,,,,,,,,,
{8}8>3[8:1],,68,5V37[4:1],,53,2-6[8:1],,
{8}1<6[8:1]*>4[8:1]/2,,1,,5-8[8:1],2-5[8:1],5,2,
{8}1<6[8:1],,31,4V62[4:1],,46,7-3[8:1],,7/8-2[8:1]*-4[8:1],,8,,
{8}3-1[8:1],5-1[8:1],3-7[8:1],5,3,,5,6-2[8:1],,26,1w5[8:1],,1,,
{8}37,,2pp5[4:3]b,,8qq5[2:1],,,,,,,,
{8}46,,
{16}3,4,2,5,
{16}1x,8x,7x,6x,5x,4x,3x,2x,1x-5[8:1]/5x-7-3-1[2:1]b,,,,
{4}A1f,,,
{8}4>1[8:1],5,6,7-3[8:1],,1v2-4[4:1]/7V51[4:1],,,,,
{8}8-4[8:1],7,6,5-2[8:1]*-8[8:1],,5,,,
{8}1-5[8:1],2,3,4h[4:1],,
{24}5,6,7,
{4}8-3[8:1],
{8}2-4[8:1],1,7-5[8:1],8,37,2,1,86,
{16}7,5,6,5,6,,47,,3,4,3,4,2,,31,,
{16}8,7,6,5,4,3,2,1,
{16}84,5,6,7,8,1,2,3,47,6,5,4,3,2,1,8,73,4,5,6,7,8,1,2,
{2}3b-5-8-2z6[4:9]b/Ch[2:3],,,,,,
{8},
{8}7,8h[4:1],,
{8}E5,E6,C,B7,12,2,38,8,47,4,56,6,34,3,25,5,16,1,87,7,
{8}1/2,4,8/7,5,8/2,4,1/7,5>1[8:1]b,,
{8}8b,7b,6b,5b/1b,,C,,
{8}25,
{16}3,4,2-5[8:1],,1,,8-4[8:1]/2-8[8:1],,,,8b/2b,,,,
{16}17,,6,5,7-3[8:1],,8,,1-7[8:1]*-5[8:1]/7,,,,1b,,,,
{16}46,,3,4,2-8[8:1],,7,,2-4[8:1]/6-2[8:1],,,,2b/6b,,,,
{16}58,,7,5,6,,3/7-3[8:1],,2-5[8:1],,7,,2,,8,,17,,
{16}6,5,7-4[8:1],,8,,1-5[8:1]/7-1[8:1],,,,1b/7b,,,,
{16}82,,3,4,2-6[8:1],,1,,8-2[8:1]*-4[8:1]/2,,,,8b,,,,
{16}53,,6,5,7-1[8:1],,2,,7-5[8:1]/3-7[8:1],,,,7b/3b,,,,
{4}4b-8[8:1]b/1b-5[8:1]b,1b/4b,
{8}47,36,25,14,
{16}8b,7,6,5,4,3,2,1,8>4[4:1]/4,,5,,6,,7V51[4:1],,,,7,,,,
{8}8-4-2[4:1],,68,,5-7[8:1],,1-3[8:1]/5-1[8:1],,1/5>8[4:1],,5,,
{16}7,6,5,4,3,2,1,8,74,5,6,7,8,1,2,3,48,,
{16}6x,5,7,5,6h[8:1],,3x,4,2,4,3h[8:1],,8x,7,6,5,4/8h[8:1],,
{16}3x,14,25,36,4/7h[8:1],,5x,46,35,24,1h[4:1]/3,,,,
{8}8x,8,1x/7x,17,2x/6x,26,3x/5x,3/5<8[8:1],,
{24}1b,2,3,4,,,1b,8,7,6,,,2b,3,4,
{32}8b/5-1[8:1],7,6,5,4,3,2,1,
{16}8bxz4[4:11]b*V62-4[4:11]b/5bx,Cf,,,
{4},,,
{1},,
{8},,,
{8}Ch[4:1],,,,,
E
