&title=goldenfield
&artist=fhána
&first=0.365
&des=因幡 めぐる
&des_5=因幡 めぐる
&lv_5=12+
&inote_5=(135){8}8h[2:1],E2,E3,E4,E5,7/2,,7/2,
1h[2:1],E8,E7,E6,E5,7,6,5pp8[8:3]/4qq1[8:3],
,,,,,E1,E2,E3,
{32}E7,E6,{16}E5,,,{4}1,{32}E3,E4,{16}E5,{32},,,,8x,7x,{16}6xh[16:3],,,{8}4bh[2:1],
E6,E7,E8,E1,6/3,,6/3,
5h[2:1],E4,E3,E2,E1,1V35[2:1],{4}5V71[8:3],
{8},,,,,8,7,6,
{2}Cfh[8:7],8bh[8:3],
{4}7bx/2bx,{16}6,5,6,3bxV17[16:3],,,{8}7,5,3h[8:1],
{16}7x,,,1/5,,,{8}6-3[8:1]/2-7[8:1],,,,5h[8:11],
4,4,,6,{4}6,{8}3,3,
,7,{16}7,E5,E4,E3,E2,E1,E8,E7,E6,E5,{8}E4f,
{4}8b-4b[8:1],{16}8b/1b,2,{8}3h[4:1],,6,5/4,3/6,
{16}7h[8:1]/5h[8:1],,,6h[8:1]/4h[8:1],,,{8}5h[8:1]/3h[8:1],,1>4[8:1],8,7,
6<1[8:1],5,4,3<6[8:1],2,1,8-4[8:1],7/1,
,2<3[8:3]*>1[8:3],,,,,,2bh[8:3],
,,7<4[8:1],8/1,7,2,2>5[8:1],8/1,
8,7pp4[4:1],,7b,,3h[4:1],,4h[4:1],
,1,4b/1b,2/3h[8:1],,1-5[8:1],,8-4[8:1],
,,,Ch[2:1],,E8,E7,E6,
{4}8bx/1bx,7-4[8:1],{8}2q5[4:1],2,2,8<5[8:1],
,8b,,7/8>5[4:1],,8,7,6,
6b,1<4[4:1],,1b/2b,,2b-6b[8:1],,2bx,
{16},,4,5,{8}4,6,3,7,2,8<5[8:1],
1,1,,3-8[8:1],7,7,{4}6-3[8:1],
{8}1,1,2,3,4/8-6[8:1],4-2[8:1],{4}8-4-8[4:1],
{8},,,7/3,{4}8<5[8:1]/4>1[8:1],8q4[8:1]/4q8[8:1],
{8},,E2/E6,E7/E3,E8/E4,4,{4}4/8-6[8:1],
{8}2-4[8:1],2,,5-1[8:1],{4}5,4>2[8:1],
{8}8,8>4[4:1],,4<8[4:1],,8>4[4:1],,4b,
,,{4}Ch[2:1],{8},,,8qq1[4:1],
,1>8[8:3],,,,1b,,,2bh[4:3],
,,7bh[4:5],,,,Cfh[8:9],
,,,,,,{4}6bq7>4b[1:1],
{8},,,,,,4x-1[8:1],4x-7[8:1],
,,,,{2}8bw4b[8:1],
1-5[8:1]/2-6[8:1],8-4[8:1]/7-3[8:1],
6-1[8:1]/2-5[8:1],{4}8V64[8:1]/4V28[8:1],4bx/8bx<4pp8b[1:1],
Cf,{8},,,,8x-3[8:1],8x-5[8:1],
,,,6/2,5/3,4>8[4:1],,8<4[4:1],
,4s8b[4:1],,,,,7bx/1bx,7x/1x,
{4}6h[8:1]/3h[8:1],{8}8/1,8-6[8:1]/1-6[8:1],,8-3[8:1]/1-3[8:1],,8b/1b,
,8<5[8:1],,4>1[8:1],{4}4,7V16[4:1],
{8}2>4[8:1],,,5-1b[8:1],,1V73b[16:3],,,2,
2,{4}8qq5[4:1],{8}8/4,4-1[8:1],,4b,
,5-7[8:1]/4-8[8:1],,5-1[8:1]/4-2[8:1],,5/4,,6b/3b,
,8,{4}8-6[8:1],{8}8/5,5-1[8:1],,5/2,
{4}2-4[8:1],{8}8,8<4[4:1],,4>5[8:3]*<3[8:3],{16},,,,,,,,,4x,
8x,4x,8x,4x,8x,4x,8x,4x,{32}8x/4x,7x/3x,6x/2x,5x/1x,
{4}4xh[8:5]/8xh[8:5],,,8bx-2b[16:1]/4bx-6b[16:1],
{16}8b/4b,,,3,,,{8}4,{16},6b,,,6,,,5,
,,{8}3b,{16},4,,,6,6,,2b,,,{8}3,
{16},4,,,1xV37[8:3],,,6,,,{8}7V51[8:3],{16},8,,,{4}1<2[8:3]*>8[8:3],
{16},,,,,,,,1bh[16:3],,,7b,
,,{8}8,{16},7,,,1h[16:3],,,7,,,{8}6,
{16},5,,,8h[16:3],,,2,,,{8}3,{16},4h[16:1],,,8h[16:1],
,,2h[16:1],,,{8}6h[16:1],{16},1b,,,Ch[8:27],,,8,
{8}8,7,{16},6,,,6,,,6,,,{8}8q3[8:3],
,,,,,,{4}1p6[8:3],
{16},,,,,,,,E8,,,,,E7,,,,,{8}E6,
,,,E8/E4,{32},,,,,,,,,,,,E3,
E4,{16}E5,,,,,,,{8}8qq4[8:5]*pp4[8:5],,,,,,,,Ch[32:19],
{32},,,,,,,,,,,,E7,
E6,{16}E5,{32},,,,,,,,,,,,B8,C,{16}B4,{32},,,,,,,,,,,,B1,
B2,{16}8h[16:15]/B3,,,,,,,,,,,,,,,{8}1p8V64-2-8<1[8:13],
,,,,,,,,,,,,,,,,{4}7s3[4:1]/2z6[4:1],
{8},,,8w4b[8:1],
,8b,,6,{4}6,4,
{8}5/3qq8[8:3],,,,,7,{4}7<4b[8:1],
{8}7b/2bh[8:5],,,,,3h[2:1],,,,4h[2:1],
,,,5,,6/3>8[4:1],
,5,,5,,1/5,,2/6,
,3/7<4[4:1],,2,,2,,5/1>4[4:1],
,6,,7w3[4:1],,,,,,8b/1b,
{4}8bx-6b[8:1]/1bx-6b[8:1],8bx-3b[8:1]/1bx-3b[8:1],8bx-4b[8:1]/1bx-5b[8:1],
Cf,8>4[4:1],{8}4bxz8b[4:1],4,,,1,
1-5[8:1],2,1,{4}8<5[8:1],8/4w8[8:1],
4b,6bx-3[8:1],{8}2-7[8:1],2,{4}5bh[8:1],
7x-5[8:1]/1x-5[8:1],7-3[8:1]/1-3[8:1],1-5[8:1],1bx>4b[8:1]*<6b[8:1],
{8},,5-7[16:1],5-3[16:1],,8-6[16:1],{4}8-2[16:1],
{8}5>2[8:1],5<8[8:1],,,{4}1b,8b-5b[16:1]/1b-4b[16:1],
{8}Cf,6/3,6/3,{16}4,5,4,5,4,5,{32}4b,3bx,2bx,1bx,8bx,7bx,6bx,5bx,
{1}4bx/Cfh[8:9],
{8},1b-5b[8:1],{16},,1/8,7,{4}6h[4:1],{8}3,5/4,
7/2,8h[16:3],{16},2h[16:7],,,{8}7h[4:1],,,8b-4b[8:1],
,8b/3-1[8:1],{4}3,{8}5-7[8:1],5,,8-5[8:1],
{4}8,{8}2-5[8:1],2,{16}E7,E8,E1,E2,E3,E4,E5,E6,
E7,E8,{8}E1f,7b/2b,{16}8,1,{8}8,7,2,6/3,
5/4,1h[16:1]/C,{16},6h[16:1]/C,,,{2}C/4w8[8:1],
{8}6/2,7-4[16:1]/3-8[16:1],{4}7/3,{8}5-8[16:1]/1-4[16:1],5/1,,3>1[16:1]/7<5[16:1],
{4}8/4,{8}8,8>4[4:1],,4<8[4:1],{4}4,
{8}1w5[8:1],1,
E
