&title=glory MAX-to the MAXimum-
&artist=TAK
&first=-1.82
&des=ALKane-to the MAXimum-
&lv_5=14
&inote_5=(190)
{16},,,,,,,,,,,,,,,,
,,,,,,,,,,,,,,,,
1,,,,,,2h[8:1]/4h[8:1],,,,3h[8:1]/5h[8:1],,,,4h[8:1]/6h[8:1],,
,,4/5,,6x/3x,,,,6,,5,,4,,4,,
5,,4,,3,,3,,6,,5,,4,,3h[8:3],,
,,,,5b,,,,3,,4,,5,,5,,
4,,5,,6,,6,,3,,4,,5,,6V85[4:1]/4V25[4:1],,
,,,,,,,,4,4,5,,3,,6,,
2,,5,,1,,6,,8,,7,,1,,8,,
7-4[8:1]/2-5[8:1],,,,7/2,,,,3,,3h[8:1],,4,,4h[8:1],,
5,,5h[8:1],,6,,6/2b,,,,1-5[8:1]/7-3[8:1],,3/5,,{48}1b/7b,B7/B1,Cf,B5/B3,,,
{16},,,,,,,,2-5[8:1]/4-7[8:1],,,,2/4,,,,
1/8,,2,,3/5,,6,,7-4[8:1]/4-8[8:1],,,,7/4,,,,
1/5,,2,,6/3,,4,,5-1[8:1],,6,,5,,7-3[8:1],,
8,,7,,1,,2b<4[4:1],,,,,,,,,,
3x/5x,,2/6,,1/7,,8b-4[8:1],,,,1/8,,2>8[4:1],,,,
Cf,,,,,,1b-5[8:1],,,,1/8,,7<1[4:1],,,,
Cf,,,,,,,,3,,2/8,,6,,7/1,,
3/6,,4,5,3,,2xb-7[8:1]/6bx-3[8:1],,,,2b-5[8:1]/6b-1[8:1],,,,2b/6b,,
,,Ch[8:1],,,,,,3h[8:1],,4,,,,6h[8:1],,
5,,,,2h[8:1],,4,,,,7h[8:1],,5,,,,
6,,6,,4,,4,,5,,4,,3h[4:1],,,,
4,,,,6,,5,,,,3,,4,,,,
2,,2,,5,,5,,3h[4:1],,,,5,,5,,
,,6,,6,,,,3/4,,,,2/5,,,,
6,,6,,1,,1,,7qq4[2:1],,,,8,,8,,
,,1,,1,,,,2,,2/5,,,,6x,,
,,3,,4,,2/5,,,,8,,1,,7/2,,
,,5,,6,,7/4,,,,5,,3,,2/6,,,,
2-6[8:1],,,,2/8,,,,,,7/4,,7/4,,
3/6,,3-8[8:1]/6,,5,,3/7-4[8:1],,,,7/1w5[8:1],,,,1,,
,,,,6x,,,,3,,4,,2-5[8:1],,,,
2/8-4[8:1],,,,1/8,,,,2-5[8:1],,1-6[8:1],,2,,1,,
,,4,,5,,6h[1:1],,E3/B3,,,,E7/B6,,,,
E4,,B4,,B5,,E6,,,,4/5,,,,2/7,,
,,1/8,,7,,3,,6b-2[8:1]/2b-4[8:1],,,,2<7[8:1]/6,,,,
5-1b[8:1],,,,5/6,,,,7-4[8:1],,,,7/8,,1-5[8:1],,
,,5/1,,,,6,,,,1/2,,8/3,,4/5,,
3/4,,2<4[4:1]/5,,1/8,,2b/7b,,,,,,,,5x,,
3,4,3,,2/5,,7-3[8:1],,,,7/3,,2-5[8:1]/2?-6[8:1],,,,2b,,,,
7,,3-7[8:1],,,,3/7,,8-5[8:1]/8?-3[8:1],,,,
8b,,,,2,,3V52[4:1]/4,,,,3/5,,6,,7,,
8,,1-5[8:1],,2,,1b>4[8:1]/1?<6[8:1],,,,1bw5b[8:1],,,,1b,,
,,3,,7,,2,,3b-8[8:1]/8b-4[8:1],,,,8>3[8:1],,,,
5-1b[8:1],,,,5/4,,,,2-6[8:1],,,,2/7,,8-3[8:1]/8?-5[8:1],,
,,8b,,,,2-5[8:1],,,,2/5,,6,,7V51[4:1],,
6/5,,7/4,,3,,2b-5[8:1],,,,2b-6[8:1]/7b-1[8:1],,,,2b/7b-4b[8:1],,
,,7b/2bw6[8:1],,,,2b>1[1:1]/2?<3[1:1],,,,,,,,,,
,,,,,,,,,,,,,,,,
8x,,1,,8/2,,3-5[8:1]/7,,,,3/7,,7-3[8:1],,,,
7/3,,2-5-8b[4:1]/2?-5-7b[4:1],,1,,2b,,,,,,,,,,
,,7,8,1b/6b,,,,2,5,3,6,4,7,5-1[8:1],,
5,,7-4[8:1],,7,,2,,2,,3,,4/2,,3-5[8:1]/5-7[8:1],,
,,3/5>8[16:3],,,,8x,,,,7,6,5,4,1,2,
7,6,2,3,4,5,7,4,6,5,8,3,1,2,7-4[8:1],,
,,7b/1b,,,,2h[4:1],,,,5-1[8:1],,4,,5b/3,,
,,2-5[8:1],,1/8,,2b/7b,,,,8-4b[8:1],,7/4,,8b/3b,,
,,1-4b[8:1]/1?-6b[8:1],,2/8,,1b,,,,5,,3,4,3,,
2V48[16:3]/5,,3/4,,2/5,,6,,7-3[8:1],,8-4b[8:1],,7b,,8b,,
Chf[2:1],,,,,,,,1b>8[4:5],,,,,,,,
,,,,,,,,,,,,,,,,
,,,,1/2,,8/3,,4>8[4:1]/7,,,,8<3[4:1],,,,
3>6[4:1],,,,6w2[4:1],,,,,,,,,,,,
2-5[8:1]/8-5[8:1],,,,2/8,,,,6h[4:1]/4h[8:3],,,,,,,,
7h[8:3]/3h[4:1],,,,,,,,8hbx[4:1]/2hbx[4:1],,,,,,,,
1-5[8:1],,,,1/8,,,,6,,7/5,,,,3,,
2/4,,,,7,,8/6,,,,2,,1/3,,,,
7-3[8:1],,,,1b/7b,,,,1/2,,8b/3b,,,,5/6,,
7b/4b,,,,7b-4b[21#64:1]/2b-5b[21#64:1],,7hb[8:15]/2hb[8:15],,,,,,,,,,
,,,,,,,,,,,,,,,,
,,,,,,,,{48}7b<1[2:3]/2b>8[2:3],Cf/B6/B5/B4/B3,,,,,,,,,,,,,,,,,,,,,,,
{16},,,,,,,,,,,,,,,,
,,,,,,,,,,,,,,,,
E2,,E3,,,,B5/E4,,,,,,,,,,
4/5,,6-2b[8:1]/3,,,,{48}6b,B6,Cf,{16}B2,,,,,,,,,
,,E3,,,,E4,,,,,,,,,,
B6,,B5,,,,B1,,,,,B2,,,,,
E3,,,,E4/E7,,,,E5/E6,,,,,,,,
7x/2x,,,,{24},B2/B7,C/E3/E7,B6/B3,B5/B4,E5,5bxqq5b[1:1]/5?pp5b[1:1],,,,,,{16},,,,
,,,,,,,,,,,,,,,,
A3,,,,A7,,,,C,,,,E2,,,,
E8,,E3,,,,E4,C,E8,,,,,,,,
E3,B3,B4,E5,,,,,2b-5b[2:1],,,,,,,,
,,,,,,,,8bV64[2:1]/8?V24b[2:1],,,,,,,,
,,,,,,,,5h[8:1]/3hbx[8:1],,,2hbx[8:1]/4h[8:1],,,8/1b,,
4hbx[8:1]/6h[8:1],,,7h[8:1]/5hbx[8:1],,,8/1b,,E7f/B7/B6/D7/A7/A6,,,,,,,,
,,,,,,,,3,,4,,2/5,,1/6,,
7/3,,2/8-5b[8:1]/8?-6b[8:1],,1,,8b-3[8:1]/8?-2[8:1],,,,8bw4[8:1]/8?-4b[8:1],,,,8b,,
,,5x,,3/6,,2/7,,1hb[8:11],,,,,,,,
,,,,,,,,,,,,,,{32}5b,6,7,8,
1,2,3,4,{16}5b/1b-5b[8:1],,,,1b/7b-4[8:1],,6,,7/3-8[8:1],,2,,3,,
5,,1-5[8:1],,6,6,1b,,,,,,4/6,,3/7,,
1/6,,7,8,7,,1/6-1[8:1],,,,6,,2<4[16:3],,,,
2b/Cf,,,,,,3-8[8:1]/8,,,,3,,7>5b[16:3],,,,
7b/Cf,,,,,,3x/6x,,4,5,4,,3/6,,2/7,,
1/8,,1/8,,2/7,,{32}1b-5[8:1]/8b-4[8:1],2/7,3/6,4/5,,,,,{16}1b>4[8:1]/8b<5[8:1],,,,1b/8b,,
,,4x,,3/5,,2/6,,7b-1[8:1]/1b-5[8:1],,,,1V73[16:3],,,,
2-5b[8:1],,,,2,,,,1-5[8:1],,7<4[8:1],,1,,7,,
,,3/8,,,,7/2,,1,8,1,,2/7,,3/4,,
2/5,,1-3[8:1]/8,,2/7,,{24}1b-5[8:1],,,7,6,5,1b>3[8:1],,,8,7,6,1b-5[8:1],,,
7,6,5,1bp8[1:1]/1?>8[1:1],,,,,,{48}1bx/8bx,E1/B8/B1/Cf/B5/B4/E5,,,,,{16},,,,,,,,
,,,,,,,,,,,,,,,,
,,3/6,,2,,1h[4:2]/7,,,,,8h[16:3],,,,,
1-5[21.1#64:1]/1?-5[21.1#64:1],,8-4b[22.3#64:1],,1hb[4:7],,8hb[16:26],,,,,,,,,,
,,,,,,,,,,,,,,,,
,,,,{48}1b/8b,Cf,,{16},,,6>3[8:1],,7,,8,,1<6[8:1],,
2,,3,,2-5[8:1],,1,,2/8-4[8:1],,1,,8/2,,3,,
2,5,3,6,4,7,5,8,5>2[8:1],,6,,7,,8<5[8:1],,
1,,2,,3-8[8:1],,2,,3/7-4[8:1],,6,,7/1,,2,,
3,4,2,5,1,6,8,7,1>4[8:1],,8,,7,,6<1[8:1],,
5,,4,,3<6[8:1],,2,,1,,8>3[8:1],,7,,6,,
5,5,4,4,6,6,3,3,7,,1,8,2pp5[8:3]/7,,,,7,,7,,6,,6,,,,5/4b,,6/3b,,7/2b,,
{24}E7,E6,E5,E4,E3,E2,E1,E8,E7,{16}6bx-1[8:1]/2bx,,,,6/1,,2<4[4:1],,,,
2b/Cf,,,,,,3b-8[8:1],,,,3/8,,7>5[4:1],,,,
7b/Cf,,,,,,2b-5[8:1],,,,2/5,,6>8b[4:1],,,,
6b/Cf,,,,2x,,2hx[4:1],,,,7,,8/2,,1,,
8,,1/7,,2/6,,3b,,,,4/6,,4V25[4:1]/6V85[4:1],,,,
{48}4b/6b,Cf,,{16},,,,,7x,,,,1/6,,7/8-5[8:1]/8?-3[8:1],,,,
{48}8b,B6/B2/Cf,,{16},,,,,2x/6x,,,,3/6,,4-1[8:1]/5-8[8:1],,,,
{48}4b/5b,Cf/E5/E1,,{16},,,,,2bx,,,,1/7,,,,2-6[8:1],,
8-4[8:1],,2,,{48}8,C,
