&title=スコーピオンガールの貴重な捕食シーン
&artist=STEAKA
&des=SnapDot
&first=0
&des_5=SnapDot
&lv_5=14
&inote_5=(152)
{1},
{32}E3,E7,,,,,,,,,,,A2,B2,C,B7,,,A5,,,,,,,,,,,,,,
{32},,,,,,,,,,,,E8,,E2,,,,,,,,,,,,,,,,,,
{16}B1/E2,,,E7/B6,,,B3/E4,,,,,,,,,,
{32},,,,,,,,,,,,E2,,E6,,,,,,,,,,E8,,B2,,B6,,E4,,
{32}A7,E8,B8,,,,E2,,B6h[8:1],,,,E8,B8,B1,E2,A2,,B3,,B5,,,,4/5,,,,Ch[8:1],,,,
{16}B7h[8:1],,,,4h[16:1],,6h[16:1],,,,,,3x,4x,5x,,
{16}3`5,,,4`6,,,5`7,,C,,,,E7/B7/B2/E3,,Ch[8:1],,
{16},,E7/B6,,E1,E2,E3,E4,,,,,4,5,4,5,
{8}3-8[8:1],,5,,4,4,3,,
{8}2,5,3,6,7v4[8:1]/1v4[8:1],1/7,,,
{8}3h[2:1],5,4,2,8h[2:1],1,2,3,
{8}4-6[8:1],3,2-4[8:1],1,8-2[8:1],7,6/8,,
{8}6-1[8:1],,4,,5,5,6,,
{8}7,4,6,3,2v5[8:1]/8v5[8:1],8/2,,,
{8}6h[2:1],4,5,7,1h[2:1],8,7,6,
{8}5-3[8:1],6,7-5[8:1],8,1-7[8:1],2,3/1,,
{8}3-6[8:1]/7-2[8:1],,3/7,,1,4,8h[4:1],,
{8}7-3[8:1],1,7,1-5[8:1],4<7[8:1]*>1[8:1],1,,,
{8}8h[4:1],5,1h[4:1],4,7h[4:1],6,2h[4:1],3,
{8}5-7[8:1],6,3-8[8:1],2,7-4[8:1],6,1h[8:1],,
{8}2-7[8:1]/6-3[8:1],,2/6,,4,1,5h[4:1],,
{8}6-2[8:1],4,6,4-8[8:1],1<6[8:1]*>4[8:1],4,,,
{8}5h[4:1],8,4h[4:1],1,6h[4:1],7,3h[4:1],2,
{8}8h[16:1],2h[16:1],7h[16:1],3h[16:1],5h[16:1],4h[16:1],E8/B7/B6/E6/C/E2/B2/B3/E4,,
{16}4hx[4:1]/5x,,3<6[8:1],3,,2x,,2hx[16:3],,,7hx[4:1],,1,2,3,,
{16}5hx[4:1]/4x,,6>3[8:1],6,,8x,,8hx[16:3],,,2hx[4:1],,8,7,6,,
{16}4hx[4:1]/5x,,2-7[8:1],2,,1x,,1hx[16:3],,,6hx[4:1],,4,3,2,,
{16}6,5,4,3,2,1,8,7h[8:1],,2,2,,{32}8x,1x,8x,1x,,,,,
{16}2hx[4:1]/7x,,3<6[8:1],3,,1x,,1hx[16:3],,,8hx[4:1],,5,4,3,,
{16}7hx[4:1]/2x,,6-3[8:1],6,,8x,,8hx[16:3],,,2hx[4:1],,4,5,6,,\
{16}3hb[16:1]/7hb[16:1],,4hb[16:1]/8hb[16:1],,1hb[16:1]/5hb[16:1],,2hb[16:1]/6hb[16:1],
,3,7,4,8,5,1,,{32}D5/D1,A4/A8,
{32}D8/D4,A7/A3,,,,,,,2x,6x,2x,,,,E7/B7/E3/B3,,,,1x,,6x,,,,B1/E2/D2,,,,,,,,
{16}B7h[8:1],,6>3[8:1],6,,8x,,8hx[16:3],,,2hx[4:1],,1,8,7,,
{16}B2h[8:1],,1-6[8:1],1,,4x,,4hx[16:3],,,5hx[4:1],,2,3,4,,
{16}B6h[8:1],,8v3[8:1],8,,5x,,5hx[16:3],,,4hx[4:1],,5,6,7,,
{16}3,5,4,7,1,5,2,6h[8:1],,3,,,8/2,7/3,4/6,,
{16}8h[4:1],,6-3[8:1],6,,7x,,7hx[16:3],,,1hx[4:1],,5,6,7,,
{16}2h[4:1],,3-8[8:1],3,,4x,,4hx[16:3],,,7hx[4:1],,4,3,2,,
{16}6h[4:1],,7-4[8:1],7,,8x,,8hx[16:3],,,3hx[4:1],,8,7,6,,
{16}1,2,3,4,5,6,7,8h[8:1],,5,,,{32}7x,4x,7x,4x,,,,,
{16}1s5[4:1],,5,,1,,,,1,,,1,,,2/7,,
{16},,3,4,,4,3,,4h[8:1]/6h[8:1],,,,3/5,,,,
{8}2h[8:1],6,1h[8:1],5,3h[8:1],7,4h[8:1],7,
{16}6h[8:1],,4x,5,4,6,4,,3h[8:1],,6,6,,4x/7x,,,
{8}A7,2,B6,3,C,D4,6x,6h[8:1],
{8}4,6h[8:1],7h[8:1],8h[8:1],1-5[8:1],8,1,,
{16}4/6,,5,5,4h[8:1],,7h[8:1],,3,,2,2,5,,1,,
{8}7h[8:1]/4,4,3h[8:1]/8,8,6h[8:1]/2,2,3h[8:1]/8,,
{16}8v5[8:1]/4v1[8:1],,,,4/8,,,,2h[8:1]/6h[8:1],,,4h[8:1]/8h[8:1],,,2/7,,
{16},,6,4,,4,5,,4h[8:1]/6h[8:1],,,,3h[8:1]/5h[8:1],,,,
{8}2h[4:1],E8/B8,4h[4:1],B1/E2,5h[4:1],E1/A8,6h[8:1],B2/E3,
{16}4h[8:1],,7,4,6,4,5,,2,2,,5,,4x/6x,,,
{16}6h[16:3],,4,4,5h[16:3],,3,3,7h[16:3],,4,4,6h[16:3],,2,2,
{16}7h[8:1],,8h[8:1],,1h[8:1],,2h[8:1],,8-4[8:1],,7,,8/1,,2,2,
{1}1<7s3<6[2:1],
{8}B1/E2,B7,B6/B5,B2,E7,C,E3,,
{16}3-7[8:1]/6-4[8:1],,,,3/6,,,,8,6,1,,3h[8:1]/7h[8:1],,,,
{8}8-5[8:1]/3,2,8-3[8:1],4,8w4[8:1],2,8,,
{16}6,4,5,3,6,4,5,3,6,4,7,2,6,4,7,2,
{8}1x/5x<8[8:1],6,1>4[8:1]/5,2,1/5q1[8:1],6,1/5,,
{16}8>2[8:1]/3p7[8:1],,,,3/8,,,,1,1,4,,3h[8:1]/5h[8:1],,,,
{8}2-4[8:1]/7,6,2-6[8:1],5,2-5[8:1]*-8[8:1],7,2,,
{16}7,5,7,5,6,4,6,4,5,3,5,3,4,2,4,2,
{16}8,1,7,1,8,2,7,1,8,1,7,2,8h[8:1],,,,
{16}8<5[8:1]/4>1[8:1],,,,4/8,,,,8,8,5,,4h[8:1]/6h[8:1],,,,
{8}2-7[8:1]/6-3[8:1],3/7,2>5[8:1]/6<1[8:1],,2v7[8:1]/6v3[8:1],,2/6,,
{16}7x,4,7,5,6,3,6,4,5,2,5,3,4,1,4,2,
{8}5<8[8:1],5,1-4[8:1],1,7-4[8:1],7,3h[8:1],,
{16}2>5[8:1]/6<1[8:1],,,,2/6,,,,1x,1x,4,,3h[8:1]/5h[8:1],,,,
{8}4-8[8:1]/6,5,6-1[8:1],5,4-8[8:1]*-2[8:1],5,4,,
{16}1,5,2,5,2,6,3,7,3,6,4,7,3,5,4,6,
{16}4,5,4,6,3,5,3,6,4,5,3,,4b/6b,,4b/6b,,
{4}2bh[4:1],4bh[4:1],5bh[4:1],7bh[4:1],
{4}1bh[4:1],3bh[4:1],6bh[4:1],8bh[4:1],
{8}1b,1,4b,4,6b,6,8b,8,
{16}2,7,2,7,{32}2,3,4,,8,7,6,,1,2,3,,7,6,5,,Ch[8:1],,,,,,,,
{16}6,6,4,4,5,,1,7,,3,5/2,,E1,E2,E3,E4,
{16}7,7,4,,3,3,6,,2/8<5[8:1],,4/6,,1bx,2bx,3bx,4bx,
{16}1x-5[8:1],,4,4,1b,,3,3,6,6,5,,7,1,6,2,
{16}7,4,8,,3,5,1,,E8,,B2,,5bx,6bx,7bx,8bx,
{16}1,1,4,4,3,,5,6/4,,2,3/8,,7x,7x,1x,1x,
{16}8x,8x,2,,3,3,7,,2h[8:1],,8h[8:1],,1bx,7bx,3bx,5bx,
{16}4h[8:1],,6h[8:1],,5h[8:1],,7,5,6,4,5,,2/6,3,4,5,
{16}7h[16:3],,4,,8h[16:3],,4,,1h[16:3],,4,,2x,3x,2x,3x,
{16}B4h[4:1],,,,{24}E1,E8,E7,E6,E5,,{16}3,3,5,,B2h[4:1]/E3h[4:1]/B3h[4:1],,,,
{16}6,6,4,,B7/E7,,B1/E2,,8,1,7,2,8bx,7bx,6bx,5bx,
{16}B1/E2/A2,,,,B7h[4:1]/E7h[4:1]/B6h[4:1],,,,3,3,8,,B1/E2,E7/B7,B3/E4,B5/E5,
{16}1,1,7,,Ch[4:1],,,,5,3,4,2,5bx,6bx,7bx,8bx,
{16}B1h[4:1],,,,{24}D8,E8,B7,C,B4,,{16}3x,3x,5,,4,6,4,6,
{16}3,5,1,,4h[8:1]/6h[8:1],,,,3/7,,1,1,8bx,2bx,7bx,3bx,
{16}5bx,4,5,1,6bx,5,6,1,5bx,4,5,1,6bx,5,6,1,
{16}5bx,5bx,3bx,3bx,8b,8b,1b,1b,{32}7b,6,5,,1b,2,3,,E8/B7/B6/E6/C/E2/B2/B3/E4,,,,,,,,
&inote_6=E
