&title=不得不爱
&artist=潘玮柏
&first=0.02
&des=zirco
&lv_6=13
&des_6=zirco
&inote_6=(80)
{16},,,,
,,,,
,,,,
,,,,
{16}4/3,,3/4h[8:3],,
B8,,,,
1<6[8:1],,,,
4,,,,
{16}6/5,,6/5h[8:3],,
B1,,,,
8>3[8:1],,,,
7,,5,,
{16}6/5,,5/6h[8:1],,
C,,,,
7<4[8:1]/8>3[8:1],,,,
,,,,
{16}3/4,,4/3h[4:1],,
C,,,,
1/2>5[8:1],,2/1<6[8:1],,
,,,,
{16}2h[8:1],,1,,
8/3pp3qq3[2:1],,,,
6,,,,
B2/B1,,,,
{16}6h[8:1],,5,,
7/4qq5[4:1],,,,
4/6pp5[4:1],,,,
6,,4,,
{16}3h[8:1],,4,,
5/2pp1[4:1],,,,
8,,,,
6h[8:1],,1,,
{16}4/2,,5/3h[8:1],,
6z2[4:1],,,,
2<6[4:1],,,,
3xh[8:1],,,,
{16}2bh[8:1],,4,,
5/3-6[8:1],,,,
6>3[8:1],,,,
7,,,,
{16}8h[8:1],,2,,
6pp5[4:1],,,,
4qq5[4:1],,,,
4<1[4:1],,,,
{16},,,,
2h[8:1],,1,,
3/8z4[4:1],,,,
1,,,,
{16}2h[8:1],,4,,
1>5[4:1]/5<1[4:1],,,,
,,,,
,,,,
{16}3h[8:1],,5,,
5/E2/B2,,,,
5/6-4[8:1],,,,
B8/B7,,,,
{16}3h[8:1],,5,,
5/E2/B2,,,,
5/6-4[8:1],,,,
B8/B7,,E3,,
{16}5h[8:1],,4,,
4/E8/B7,,,,
4/3-5[8:1],,3/4,,
B1/B2,,,,
{16}6h[8:1],,4,,
4/E8/B7,,,,
4/3-5[8:1],,,,
B1/B2,,E7,,
{16}7h[8:1],,8,,
8/B6/B5,,,,
3/1-3[8:1],,,,
E4/B4,,,,
{16}7h[8:1],,8,,
1/B5/B6,,,,
3/1-3[8:1],,,,
E4/B4,,B6,,
{16}4-2[8:1]/6-4[8:1],,6/4,,
,,,,
4-7[8:1]/2-5[8:1],,5/3,,
,,,,
{16}8h[8:1],,1,,
7/2q4[4:1],,,,
6h[8:1],,,,
7<3[4:1],,8/4,,
{16}3s7[4:1],,,,
7<3[4:1],,,,
3-7[16:3],,,,
,,,,
{16}1h[8:1],,7,7,
4,,5/3,2h[8:1],
,8,3,7,
5/6>2[4:1],,6/7,,
{16}2z6[4:1],,,,
6>2[4:1],,,,
2-6[16:3],,,,
,,,,
{16}8h[8:1],,2,2,
5,,4/6,7h[8:1],
,1,6,2,
5<1[4:1],4,3,,
{16}1s5[4:1],,,,
5>1[4:1],,,,
1-5[16:3],,,,
,,,,
{16}3h[8:1],,5,5,
2,,7/3,6h[8:1],
,5,7,4,
3/5h[8:1],,2,,
{16}5/1-5[8:1],,2/6,,
7-4[8:1]*-3V58[8:3],,,,
7,,,,
2,,,,
{16}5/3-8[8:1],,4/6,,
8V24<5-1[8:3],,,,
7h[8:1],,,,
8,,8-4[8:27]*-4[8:27],,
{16}Cf,,,,
,,,,
3h[4:1],,,,
,,,,
{16}B2,,,,
,,,,
B1/E1,,,,
7,,,,
{16}7h[4:1],,,,
,,,,
E6,,,,
,,,,
{16}8h[4:1],,,,
,,,,
1w5[8:1],,,,
1,,,,
{16}6/4,,7,5,
6-3[8:1],,4,,
3<6[8:1],,2,,
1h[8:1],,,,
{16}2/8,,4,5,
3qq3[16:3]*pp3[16:3],,2/4,,
3,,,,
5,,6,5,
{16}7-4[8:1],,8/1,,
7/2q5[4:1],,,,
2<4[4:1],,,,
,,,,
{16}3,,2,4,
1s5[4:1]*-7[8:1],,2/8,,
1,,,,
{48}6,,,,,,7/5,,,,B3,E3,
{16}A2f/8V64[4:1],,,,
8/1,,2,,
3>7[4:1],,,,
7s3s7[2:1],,,,
{16},,,,
7V53[4:1],,,,
3<7[4:1],,,,
8,,,,
{16}1,,8,,
7h[4:1],,,,
6h[4:1],,,,
5pp1[2:1],,,,
{16},,,,
1<4[4:1],,,,
4<8[4:1],,,,
1,,2,3,
{16}4V61[4:1],,3,,
1<4[4:1]/4V28[4:1],,,,
4-7[16:3],,,,
,,1,2,
{16}3V58[4:1],,6,,
8-3[4:1]/3V57[4:1],,,,
3V17[4:1],,,,
,,,,
{16}6-4[8:1],,7,,
8/6,,1,,
2,,6,6,
3-8[12:1]/7-4[12:1],,4/8,,
{16}3b<1[8:5]/7b>5[8:5],,,,
,,,,
,,,,
,,,,
{16}5/3qq3[4:1],,3/6,,
3V51[4:1]/7-5[8:1],,,,
,,,,
6pp7[16:3]*qq5[16:3],,5/7,,
{16}6,,,,
6<3[4:1],,5,4,
3>6[4:1],,5,,
6,,5,4,
{16}3<7[4:1],,2/6,,
7s3[4:1],,,,
3>7[4:1],,,,
5-1[8:1],,,,
{16}5b,,2,,
5/3-1>3[4:1],,,,
3-6-1[4:1]*<5[8:1],,,,
,,,,
{16}4v2[8:1],,2<7[8:1],,
4/6,,,,
5pp5[16:3]*qq5[16:3],,,,
5-1[8:1],,,,
{16},,,,
3-6[8:1],,6V42[4:1],,
3/8,8,,7,
,6,,5,
{16}5<1[4:3],,2,5,
1>5[4:1],,,,
1,,,,
,,,,
{16}5-1[4:7],,,,
,,,,
,,,,
,,,,
{16}8-6[8:1],,,,
,,,,
2-4[8:1],,,,
,,,,
{16}4-8[4:7],,,,
,,,,
,,,,
,,,,
{16}3-1[8:1],,,,
,,,,
5-7[8:1],,,,
,,,,
{16}5-1[4:7],,,,
,,,,
,,,,
,,,,
{16}2-4[8:1],,,,
,,,,
8-6[8:1],,,,
,,,,
{16}4-8[4:7],,,,
,,,,
,,,,
,,,,
{1}
