&title=Anti Safety Zone
&artist=MYUKKE.
&first=0.03
&des=ChyMori
&lv_5=14
&des_5=ChyMori
&inote_5=
(170){4},,,,{48}8<1[2:3],
7/1,6/2,5/3,{12}4x,{24},,,,,,,,{8}3,,,4,
,,{4}5,{2}7x,
1>4[4:3],{4}6,{8}7,8-4[8:1],
,3,2z6[4:1],1,,,,5x,
{4}4h[4:1],{8}6,3h[8:3],,5,6,4h[8:3],
,6,7,8/3h[2:1],{16},,B8,C,{4}E4,
{16}2,5,2,5,3,4,3,4,{8}6/1,2h[16:1],5,3b-7[8:1],
,3,6bx,5-1[8:1],{2}1bw5b[8:1],
{16}2b,5,4,6,3,5,4,6,5,5,7,7,{8}4,6h[4:1],
{16},,3,5,2,4,1v4[8:1],2,{8}3,{16}6,7,{8}8x,5b,
{16}7,4,5,3,6,4,5,3,4,4,{8}2h[4:1],{4}3,
{8}8bx/7bx,{16}2bx/1bx,1bx/2bx,,8bx/3bx,{8}2bx/7bx,{16}5bx,6bx/4bx,,2bx,{8}3bx/1bx,B8f/B7/B1/B2,
3h[8:1],{16}5,5,4,6,4,7,5,8,5,8,{8}4v1[8:1],7h[8:1],
{16},,6,6,3,3,{8}5,4-7[8:1]/3-7[8:1],2/5,{24},,,,,,{12}5/8x,
5/1x,5/2x,5/3x,,4b,1x/3,3/8x,3/7x,3/6x,,2b,
1x,5,5,8x,4,4,7x,3,3,6z2b[6:1]/2z6b[6:1],,,,,,3h[6:1],
5,7,4h[6:1],6,8,5h[6:1],,8,
7h[6:1],5,3,6h[6:1],4,2,5h[6:1],3,1,4h[6:1],,1,
2h[6:1],5,5,3h[6:1],6,6,4h[6:1],7,7,5h[6:1],,,1q5[12:1],
2,1,7q3[12:1],6,7,4q8[12:1],4,{3}4,
{4}B7/B6/B2/B3/E7f/E3f,{12}2,1,2,7,8,7,1h[6:1],,8,
8h[6:1],6,5,7h[6:1],5,4,6h[6:1],4,3,5h[6:1],,4,
3h[6:1],4,5,5h[6:1],4,3,3h[6:1],4,5,Ch[4:1],,,8p4[12:1],
8,8,{24}1,2,{6}3h[12:1],6h[6:1]/2h[6:1],{12},{4}7h[6:1]/3h[6:1],
{12}8p6[4:1],3,2,1h[4:1],,,{4}Cf,{24}3x,4,5,6,7,8,
{12}1q3[4:1],6,7,8,,,{6}5,{12}5,6,,6,
4qq1[4:1],7,6,5h[4:1],,,{4}B5f,{24}7x,8,1,2,3,4,
{12}5-1[12:1],6x,5,3-6[12:1],2,3,8-4[12:1],8,8,2b,,,1q7p1[3:1],
6,7,8h[4:1],,,{4}B8f,{24}6,5,4,3,2,1,
{12}8p2q8[3:1],3,2,1h[4:1],,,{4}B1f,{12}3,,4x,
{6}5-1[12:1],{12}6x,2-5[12:1],,3x,{6}7-4[12:1],{12}8x,1>5[4:1],,,{4}5<1[4:1]*<1[4:1],
1V35b[4:1],{12}5,6,7,8b,,,{6}2-4[12:1],
{12}1,2/8v5[4:1],,1,8/5<8[4:1],3,2,1,,2,
{6}3-6[4:1],{12}6,6-1[4:1],,1,{6}1-4[4:1],{12}5,5,6,7,
8v5[6:1],8,{6}8h[4:1],{12},,3v6[6:1],3,{3}3h[4:1],
{6}5/4,{12}7,8/1,,3,{4}5/4z8[12:1]*s8[12:1],Cf,
{6}7-5[12:1],{12}8,7/1v4[4:1],,8,1/4>1[4:1],6,7,8,,7,
{6}6-3[4:1],{12}3,3-8[4:1],,8,{6}8-5[4:1],{12}4,4,3,2,
1v4[6:1],8,1,Cf,,,8v5[6:1],1,8,Cf,,,{6}1-5[12:1],
{12}2x,1/8-4[12:1],,7x,{6}8/1-5[12:1],{12}3x,1,7,8,
1x-7[0.2329##0.1165],2,3,4x-2[0.2329##0.1165],5,6,7x-5[0.2329##0.1165],8,1,2x-8[0.2329##0.1165],3,4,
5x,5x,6x,7b-4[12:1],,3,{6}2b-5[12:1],{12}6,8b,,1,
8x-2[0.2329##0.1165],7,6,5x-7[0.2329##0.1165],4,3,2x-4[0.2329##0.1165],1,8,7x-1[0.2329##0.1165],6,5,
{6}2b,{12}3,4b/5b,,7,8b/1b,8b/1b,8b/1b,7x-5[12:1]/2x-4[12:1],,,{4}7/2,
{12}3,4,5,2,3,4,1,2,3,
8-4[12:1],4-2[12:1],2-5[12:1],8,,,1-6[12:1],6-8[12:1],8-4[12:1],1,,,5,
5,6,8/7,,6,7,7,8,2h[6:1]/1h[6:1],,,3,
4,4,2,4,4,1,4,4,8bw4[12:1],,,{2}Cf/B6/B2,
{12}A1,A2,A3,A7,A6,A5,
2x,3,4,8x,7,6,3x,4,5,6x,7,8,
{1}1bxw5b[1.7612##0.1765],
{4}1-6[8:1]*-4[8:1],B8/B1/B2/B5/B6/B7f/B3f/B4,{8}8b,8b,{4}8b,
4h[8:3],7,{8},5,6,5,
,4,{4}7,{8},6x,{4}6x,
5h[4:1],2,{8},4,3,4,
,5,{4}2,{8},3x,3x,{16}5,4,
{4}6/3,7,{8},5h[16:1]/4h[16:1],3,6,
,3/6,{4}7,{8},5x,{4}5x,
{8}6h[32:1]/4h[32:1],3,2,1,8,5/4,{4}3h[8:1],
{8}5/4,5/4,7/2,{16}1,8,{8}1,6/3,{4}7b/2b,
4>5[2:3],B5,B6,B7,
B8,B1,B2,B3,
5<4[2:3],E4,E3,E2,
E1,E8,E7,E6,
5/4>1[2:1],6,7,8,
1/8<5[2:1],2,3,4,
1/2-5b[16:1],B1/B5/C,8/7-4b[16:1],B8/C/B4,
1>3b[16:1]*<7b[16:1],1w5b[16:1],,E8/B7/E6/B8/B1/E4/B2/B6/Cf,
{8}1-4[16:1],{16}8,8,{8}1,7,{16}5,6,4,7,{8}3h[4:1],5,
{16},,4,5,6,7,8-4[8:1],1,{8}7/2-5[8:1],8,2,1,
{16}6,3,7,2,{8}8,{16}1,1,7,8,{8}7,1h[4:1],{16}7,6,
{8}5,{16}3,3,{8}2/1,4,7/8,5,{4}8-4[16:1]/7-4[16:1],
{8}8b/7b,{16}2,2,{8}8,1,{16}7,8,6,1,{8}5h[4:1],3,
{16},,E2/B2,B6/E6,B4/E4,E8/B8,E1,C,{8}E5,{16}E2,E7,{8}E4,E6,
{16}3,4,2,5,{8}1b,{16}5,4,6,5,{8}7b-4b[8:1],1/2,7-3[8:1],
,,1,2-5[8:1],6-1b[8:1],2bx,{4}6bx,
{16}3,7,4,6,1,5,2,8,3,6,2,7,{8}1h[4:1],8h[8:1],
{16},,2,7,3,5,4,6,{8}5-1[8:1],1-5[8:1],{4}5x,
{16}7,4,6,3,5,4,6,2,7,1,{8}8h[16:5],2,{16}1,1,
{8}7,{16}5,6,{8}5,3,4v7[8:1],7v4[8:1],{4}4x,
{16}6,5,6,4,7,4,8,3,8,2,7,1,{8}6h[4:1],8h[4:1],
{16},,7,6,5-1[8:1],3,{8}2-6[8:1],5x-3[16:1],2x-8[16:1],{16},,,,6,
5,{8}6,{64}7/8,B8/E7,B6,C,{16}B4,,,3,4,{8}3,{64}1/2,B1/E3,B3,C,{16}B5,{48},,,,,,1-5[16:1]/8-4[16:1],
7/2,{24}6/3,,,,,{4}8/1,{8}5/4,3/6,{4}7b/2b,
{16}1,5,1,5,2,6,2,6,3,7,3,7,4,6,4,6,
5,5,5,5,4,5,3,5,2bx,1,8,7,5bx,6,7,8,
5,1,5,1,4,8,4,8,3,6,5,7,2,4,3,5,
{8}4bx/6bx,{16}1bx,8bx/2bx,,7bx,{8}6bx/8bx,{16}4bx/3bx,5bx/2bx,,8bx/7bx,{8}8bx-3b[16:1]/7bx-4b[16:1],6bx/1bx,
{16},,,,2,5,3,6,2,1,3,4,8,7,5,6,
2,4,1,7,5,6,4,5,3,4,2,3,1,4,{8}8,
{12}6/1x,6/2x,6/3x,6/4x,,7b,1x/3,3/8x,3/7x,3/6x,,2b,
5,3,3,4,6,6,7,1,1,8w4[12:1],,,{4}B1/B3/B2/E4/B6/B7/B8/E1/E6/Cf,
{12}2x-5[12:1],1,1,8x-4[12:1],7,6,3xv6[12:1],2,2,
1x-5[12:1],8,7,3x,2,2,8,7,8,1,2,3,
4x-8[12:1],5,5,7,,,2x,3,4,5b-1[12:1],,,{6}5b-8[12:1],
{12}3b,5b-7[12:1],,4b,5bw1[12:1],3b,{3}3b,
{4}E4/E8/E2/B3/B7/E1/E6/E5/Cf,{12}2x,3,4,8x/5x,7,6,1x/5x,2,3,
4x/8x,5,6,7x/4x,8,1,2x/6x,7,8,1x/4x,2,3,
6xh[24:1]/4xh[24:1],5,6,7/5,,,4xh[24:1]/2xh[24:1],3,2,1/3,,,5b,
5,5,7b,7,7,1bh[48:1],1h[48:1],1h[48:1],2x-5-7-4-2b[4:5],,,{1}B5/B6/E2/E6/B4/E4/B8/E8/B2/B1/Cf,
E
