&title=Igallta (Extended Mix)
&artist=Se-U-Ra
&first=0
&des=U.T.X
&lv_5=14+
&des_5=U.T.X
&inote_5=
(230){4},,,,,,,,,,,7/5,
{16}4/2h[2:1],{32},,,,,,,,A5f,D6,A6,D7,A7,D8,{4}8xh[1:2],{16}B5,B4,B3,B2,
B1,B8,B7,E7,E6,E5,E4,E3,E2,E1,E8,E7,E6,A5,A4,A3,
A2,A1,A8,A7,A6,A5,A4,A3,{4}2bxh[4:1],{24}B1f/B3f,B8/B4,E8/E5,A7/A5,,,{4}6h[4:1],
8h[4:1],{16}4,5,6,7,{4}8-2[16:3]*-3[16:3],
{8}8x,,,6/C,,,{4}3/C,
8h[4:1],2h[4:1],{16}6,7,8,1,{4}2-7[16:3]*v5[16:3],
{8}2x,,,4/C,,,{4}8/C,
7b/5bh[4:1],1h[2:1],{16}6,5,4,3,{4}2>5[8:3],
{8}5>1b[0.3913##0.3913],,,8,,,{4}8-4[16:3],
8x,2h[4:1],{12}4,3,5,1h[2:1],{24},,,,7x,
6,{12}5-7[6:1],{24},,,,,,,,2x,3,{12}4-2[6:1],{24},,,,,,,,{8}7b,
7h[8:1],{4}1>5[2:1],8,1,
2<6[2:1],4,3,2h[4:1],
{8}7,1/8<2[8:11],,,{4}3,2,
1,8,7,6,
{8}5/3,3,{12}6,5,7,4,5,4,7,6,5,
3,2,4,6,7,8,3,2,1,{96}E8,,,E7,,,{32}E6,E5,E4,E3,E2,E1,
{1}8bxh[2:1],
{8}E6,E2,7,3,8-5[8:1],5-7[8:1],{24},,,,,,3b,
D3,A2,D2,{6}1h[3:1],{24},{8}7,{4}7<5[16:3],{8}4,3,
2>4[16:3],1,8,7,{4}6<8[16:3],{24}3b,D4,A4,D5,{12}5h[3:1],
{24},,,{8}7,{4}7-1[16:3],{8}2,3,4-2[16:3],5,
6,7,{4}8<5[16:3],8b,2,
2,5/3,{8}5/3,3,6,6,
{16}3,2,1,8,{4}7/5b<1[4:1],{8},2,{16}2,3,4,5,
8,7,6,5,1,2,{8}3h[8:5],{32},,,,,,,,,,,,,,,,C,
B7,{16}A7,{32},,,,,,,,,,,,E3,B3,{16}B4,{32},,,,,,,,,,,,E1,
B8,{16}B7,{32},,,,,,,,,,,,7x,6x,{16}5x,,,,,,,{8}3h[8:3],
,,1h[8:3],,,{4}7h[8:3],
{8},5h[8:3],,,{2}E3f/B2/B3,
{8}8<5[4:1],,,1-6[4:1],,,{4}2<7[4:1],
{8},4w8b[4:1],,,{2}Cf/B6/B2,
{4}7-4[4:1],{8}4-8[4:1],3,,,{4}2-6[4:1],
{8}6-3[4:1],7,,,{2}8xh[8:3],
{4}1b-5[4:1],{16}5>2[4:1],6,{8}7,,,{4}8<5[4:1],
{16}5v8[4:1],4,{8}3,,,{2}2>6[4:1],
8bh[4:1],{4}7h[8:1]/5h[8:1],7h[8:1]/5h[8:1],
6h[8:1]/4h[8:1],5h[8:1]/3h[8:1],2h[8:1]/4h[8:1],2h[8:1]/1h[8:1],
8b-5[16:3],{16}5-1[16:3],4,{8}3,{16},,,,2<7[16:3],3,{8}4,
,4h[8:3],,,{4}8-6[8:1]*-2b[8:1],8,
7-5[8:1],{8}7>2[16:3],4,{4}7,3>8[16:3]*-6[16:3],
{8},,,7-5[16:3]/4-8[16:3],{2}4/7,
{4}1>4[16:3],{8}1,{16}6,7,{4}8<5[16:3],8/4>1[16:3],
{16},,,,8,7,6,5,{4}4/1b-4[16:3],1/4b-2-5-1-6-8b[4:3],
,,,,{1}1-3-7-5[2:1],
{8}8h[8:1]/6h[8:1],,,8h[8:1]/4h[16:1],,,{4}8h[8:1]/2h,
{8},1/8v3[16:3],,,{4}1,4w8[16:3],
4b,{8}2x>4[8:1],6,2-8[8:1],6,{4}2pp5[16:7],
2x,6-1[16:3],{2}A6,
{4}4h[8:1]/7<5[8:1],{8}7-1[8:1],3,7qq4[16:7],3,{4}7,
{8},3q8[4:1],,,{2}6>5-7-1[8:3],
{8}3bh[2:1],,,E2,B4,,,E8/A7,
{4}B5/E6,E4,1/2,{16}2/1,3/8,{8}4/7,
4h[4:3]/7h[4:1],{32},,,,,,,,,,,,,,,,A6,B6,C,B2,{4}A2,
{8}7h[4:3]/1h[4:1],{32},,,,,,,,,,,,,,,,A8,B8,C,B4,{4}A4,
{1}6b<6[1:1]/2b>2b[1:1],
{24},,,,,,,,,,,,B7f,E8/E7,,,,,B2f,E2/E3,,,,,{8}5bh[4:7],
,,4,,,{4}4,
{8},4,,,{4}4-2[16:3]*-7b[16:3],4,
1<7[8:1],{8}1,6,{16}1,2,{8}3/6,{16}1,8,7,6,
5,4,3/7x,2/6,{4}1/5,{16}4/1,2/5,3/6,4/7,{4}5-1[16:3]/8-4[16:3],
8b/5,E3f/B2/B3,8/1,7/6,
{8}5/4,3,6,2,7,{16}1/8,7,6,5,4,3,
{2}2/1h[1:1],{32}E3,B3,{16}B4,{32},,,,B7,B6,{16}E6,,,{2}Cfh[2:1],
{32}B6/B3,E7/E3,{16}D7/D3,,,,,,,{8}3/6h[8:3],
,,8>5[8:3],,,{4}7,
{2}8h[2:1],{4}6>1[8:3],7,
{8}6h[8:3],,,8h[8:3],,,{4}7qq4[2:1],
1h[8:1],2h[8:1],3h[8:1],4h[8:1]/6h[8:1],
{8}7/8,6h/1h,,2/8,{2}7h[4:1]/3h[4:1],
{4}5-7[8:1]/1-3[8:1],{24}A5/A1,E6/E2,E7/E3,A7/A3,,,{8}8x,8x,4,4,
{16}8,7,6,5,7,6,5,4,6,5,4,3,5,4,3,2,
{1}1h[2:1]/6bpp8p4[2:1],
Cf/1x-3-5-7[0.5217##0.5217]*>7b[0.5217##0.5217],
{4}8x,{8}7h[16:1],7h[16:1],{2}6/4>7b[0.5217##0.5217],
{4}4/7-2[0.5217##0.2609],6x-4z8[0.5217##0.5217],,,,2,
{2}2-6[0.5217##0.1957],
{24}2/6bx,7,8,1h[8:3],,,,,,,,,{4}5-2[0.5217##0.2609],4/8-4[0.5217##0.2609],
5-1[0.5217##0.2609],8-6[0.5217##0.2609],5w1[0.5217##0.2609],8,
{2}A5f,{24}E7,B6,B5,E5,,,E3,B2,B1,E1,,,{2}6xh[16:1],
{16}4,5,3,6,{4}4,
{2}7-4-6-1<3[0.5217##1.3043],7x,
{4}2h[8:1],2h[8:1],1h[8:1],1h[8:1],
2h[8:1]/8x-4[0.5217##0.2609],1,8/2x-6[0.5217##0.2609],1,
2/8,1bh[16:1],{2}8-4[0.5217##0.2609]/2-6[0.5217##0.2609],
A8/D1/D2/A2/A1f,{4}7h[8:1]/5<1[0.5217##0.2609],6h[8:1]/4h[8:1],
{2}3h[8:1]/5>1[0.5217##0.2609],7h[8:1]/5w1[0.5217##1.0435],
{8},,,,,,,,,,,,1/7<4[0.5217##0.1956],
1/7,{4}7/1,
{24}A1f,D2,A2,D3,A3,D4,,,,,,,{4}4/8q5<8b[0.5217##0.5217],3,
{1}2>4q1>2[0.5217##0.5217],
{4}7h[8:1],5h[8:1]/3h[8:1],2h[8:1]/6h[8:1],1h[8:1]/7-3[0.5217##0.2609],
,7/2-5[0.5217##0.2609],1qq6[0.5217##0.5217],2/8,
{2}1b,{4}2h[8:1],3h[8:1]/7h[8:1],
4h[8:1]/6-2[0.5217##0.2609],4h[8:1],{2}6/4-8[0.5217##0.2609],
4/7p3[0.5217##0.2609],7/2p5[0.5217##0.2609],
2/8z4[0.5217##0.2609],8/3,
{24}7bh[4:1]/A2,D3,A3,D4,A4,D5,{4}5xh[2:1],6,7,
6/4h[4:1],8,5/3h[4:1],1,
6/5,8,4/2-5[0.5217##0.1957],7,
2/1-6[0.5217##0.1956],8,1/2,3,
{8}5,6,4,3,7/2,7/2,{4}2/7,
{8}1,2,8,7,6/3,3/6,{4}6/3,
{16}5,4,5,4,6,3,6,3,7,2,7,2,8-4b[16:3],1,8,1,
{2}8bx,{4}B2/E3/B3,B7/E7/B6,
{8}4h[16:1]/3h[16:1],,,4h[16:1]/3h[16:1],,,{4}4pp7[2:1]/3qq8[2:1],
{8},,,,,,,,2h[16:1]/8h[16:1],
,,2h[16:1]/8h[16:1],,,{4}8pp5[2:1]/2qq5[2:1],
{8},,,,,,,,6pp1[2:1],
5,4,3,,,2,2,
,1-6[16:3],2,3,4-1[16:3],5,6,7,
{4}8-5[16:3]*-4[16:3],8,{8}2,2w6[8:3],,2,
{24},,,,,,,,,,,,E5,E6,E7,E8,E1,E2,E3,E4,{6}E5,
{24}7x,6,{12}5h[6:1],{24},,,,,7x,6,5h[6:1],,,,,,,2x,3,{6}4h[6:1],
{24},,,2x,3,4h[6:1],,,,,,,8/1,7,{12}6,{24},,8/1,2,{6}3,
{24}2/1,3,{12}4h[6:1],{24},,,,,2/1,8,7h[6:1],,,,,,,1/2,3,{6}4h[6:1],
{24},,,7/8,6,5h[6:1],,,,,,,8/7,1,{12}2,,{4}2x/4x,
{24}2/4,5,{12}6h[6:1],{24},,,,,2/4,5,6h[6:1],,,,,,,7/5,4,{6}3h[6:1],
{24},,,5/7,4,3h[6:1],,,,,,,{4}2x/8x,3x/2x,
{24}3/2,4,{12}5h[6:1],{24},,,,,3/2,1,8h[6:1],,,,,,,2/3,1/4,{6}5h[24:7]/8h[24:7],
{4},,{16}2,5,4,5,2,5,4,5,
{24}1b,2,{12}3,{24},,{8}7x<4[4:1],7,{4}4x>1[4:1],1<6[4:1],
5w1[4:1],,,3/7,
{8}7/3<7[8:3],,,7>3[8:3],,,{4}3pp6[8:5],
{8},8,,,{4}8,8,
1/6,{8}2x-5[4:1],2,{4}5x-8[4:1],8-3[4:1],
3-6[4:1],6qq3[8:5],8,8,
{24}6b,7,{12}8,{24},,,,,6,7,8,,,,,,,6/1,7/2,{6}8/3,
{24},,,6/1,7/2,8/3,,,,,,,{4}5-8[16:3]/3-8[16:3],5/3,
2-5[16:3],2/8,7,6-1[16:3],
6/2,3,4-8[16:3],4/6,
7-4[16:3],7/3,1-5[16:3],1/5,
7<4[16:3],7/3,1bh[4:1],{24}E7,E6,E5,E4,{12}E3,
{8}1,1,8,8,2-4[8:1],2,6-8[8:1],6,
3-1[8:1],3,7-5[8:1],7,{16}8b,1,2,3,4,5,6,7,
8/4,5,6,7,3,4,5,6,2,3,4,5,1,2,3,4,
{24}8b,7,6,5,4,3,2,1,8,7,6,5,4,3,2,1,8,7,6,5,4,3,2,1,
{8}8b-4[2:1],,,1h[2:1],{32},,,,,,,,,,,,,,,,1b/5,
2,3,4,{8}5,{32},,,,8b/4,7,6,5,{4}4,{32}8b-6-1-5-2-4b[8:5],1/7,6/2,3/5,{8}4,
,,,,,,{4}Cf,
{8}5b-1[16:3],5,2-5[16:3],2,8x,8,{24}8/4,7/3,6/2,5/1,,,{8}1-5[16:3],
1,6-1[16:3],6,4x,4,{24}4/8>4[16:3],7/3,6/2,5/1,{48},,,,,,,,,,{16}5,
6,7,8,{8}1h[8:3],E6,E5,{4}E4,
{8}7-4[16:3],7,3-8[16:3],3,7<4[16:3],7,2x,{16}2x,1,
8,7,4,6,4,6,4,{48}6x-2[0.3261##0.1956],,7x,,8x,,1x,,2x,,3x,,4x,,5x,{4}A6f,
{8}1,1,{4}2/8-4[16:3],{8}8/3,1<2[8:3],,1/5,
{16},,,,8,7,6,5,1,2,3,4,7,6,5,4,
{4}1b-5b[1:1],B8,B3,B6,
B4,A5f,{8}7b/3b,7b/3b,{4}7b-4[8:1]/3b-8[8:1],
,5/1<6[16:3],{8}1>4[16:3],5,1,{16}5,6,
7,8h[16:3],,,E6,E5,{8}E4,7b,6b,{4}5b-3[8:1],
{8}5<8[16:3],1,5,{16}1,2,3,4,{8}5,{24}7b,8,1,2,,,{8}4,
8/3,2,1/6,8,7/4,6,5/2,
{4}4b-7[16:3]*-1[16:3],4,{8}8x,8xq5>4q1[8:5],{1},{4},{32}2b,
E3,B3,B4,E5,5xV31[32:11],,,,,,,,,,,,,,,,,,,{4}6,
{32}8b,E8,B7,B6,E6,5xV71[32:11],,,,,,,,,,,,,,,,,,,{4}4,
{32}2b,E2,B1,B8,E8,7x>4[32:11],,,,,,,,,,,,,,,,,,,{4}6,
{32}8b,E1,B1,B2,E3,3xV57[8:3],,,,,,,,,,,,,,,,,,,{4}2,
{32}8b,B8,C,B4,{8}4x>8[8:3],,,,,{4}7,
{32}5b,B5,C,B1,{8}1x<5[8:3],,,,,{4}4,
{32}2b,E2,B1,B8,E8,7x-1-3-5[32:19],{4},,,{16},{32}6b,
D7,A7,D8,A8,D1,A1,D2,A2,D3,A3,D4,A4,D5,A5,D6,{2}6x-2[4:1],
{4}3bx,{16}8x>3[16:3],7,6,5,{4}8x<5[16:3],8x,
{16}8x,1,2,3,8x,7,6,5,{2}4<8[4:1],
{16}1bx,2,3,4,1,2,3,4,{2}8z4[4:1],
6bz2[4:1],1-5[4:1],
{8}8h[16:1],8h[16:1],3h[16:1],3h[16:1],6h[16:1]/4h[16:1],6h[16:1]/4h[16:1],7-2b[16:3],7,
,,{4}4h[2:1],B2/B3/E3,B7/E7/B6,
{16}8,7,6,5,{4}4h[4:1],1h[4:1],7h[4:1],
{16}5,4,3,2,{4}1/7x-5-3v8[2:1],,,{2}2bh[2:1],
{4}5,4/3,
7,6/5,2,1/7,
6,3/4,2/E1,2/E7,
{8}8,8,{4}7/1,{8}6/E5,6/E4,{4}6/E3,
{8}1h[8:1],C,2h[8:1],C,3h[8:1],C,{4}4bh[4:1],
{8}8,C,7,C,6,C,{4}5,
{16}1b,2,3,4,5,6,7,6,5,4,3,2,1,8,7,6,
{1}5h[1:1],
{2}Ch[1:1],{4}B6/B7,B3/B2,
{1}E1f,
5xp4[4:23],
{4}E2,{8}E1,B8,,E3/D3,,E7/D7,
,,,,,,,,E8,
B2,B6,E1,{2}Ch[2:1],
,E8/A8/E1,
{1}2h[1:1],
{8},,,,E6,E5,{4}E4,
{2}8h[2:1],{24}E2,B2,,,,,,,,,,,{2}4h[2:1],
{24}B6,E7,,,,,,,,,,,{2}6h[2:1],
{24}E3,D3,,,,,,,,,,,{2}1h[2:1],
{24}B5,E6,,,,,,,,,,,{2}7h[2:1],
6h[2:1],
5h[2:1],4h[2:1],
{1}3>6[4:7]*-1-7-5b[4:7],
{2},,Cfh[2:1],
B6/B3,
{24}2h,3,{12}4,{24},,,,,2h,3,4,,,,,,,2/6,5,{6}4,
{24},,,2/6,5,4,,,,,,,{4}7<4[16:3],7/3,
{24}2,1,{12}8,{24},,,,,2,1,8,,,,,,,4/7,8,{6}1,
{24},,,4/6,7,8,,,,,,,{4}2>5[16:3],2/6,
{24}8,7,{12}6,{24},,,,,8/2,7/3,6/4,,,,,,,3,2,{6}1,
{24},,,3/7,2/6,1/5,,,,,,,{4}8-5[16:3]*-3[16:3],8,
{8}2h[8:3],{24},,,,,,8,7,6,{4}5h[4:1],{24}1,2,3,4h[4:1],,,,,,7h,
8,1,{4}2,{24}2h,1,8,7,,,{4}5>8[2:1],
8,7,6,5<1[2:1],
1,2,3,4>1[2:1],
1,8,7,6>4[2:1],
{2}1h[4:1],{4}2bh[2:1],{24}C,B6,,,,,{8}8,
8,2,2,7,7,3,3,
6,6,4,4,5h[16:1],5h[16:1],5h[16:1],5h[16:1],
{16}5,4,3,2,5,6,7,8,4,3,2,1,6,7,8,1,
{24}5,4,3,2,1,8,7b,6,5,4,3,2,1b,8,7,6,5,4,3b,2,1,8,7,6,
{2}5b-1[2:1],6h[4:1],
{24}1b/5b,6/2,3/7,4/8,,,,,,5b/1b,4/8,7/3,{4}6/2,{24}1b/5b,6/2h,7/3h,4h/8h[8:5],5h,6h,
{12}7h,{24}1h,2h,3h,4h,5h,6h,{12}7h,{24}1h,2h,3h,4h,5h,6h,7h,8h,{4}1h/Cf,
{24}7b,D7f,A6,D6,A5,D5,{8}A4,2-7<5[16:5],{4}2,{8}8,8,
{16}4x,3,2,1,{8}8h[4:1]/6<2[16:3],6,{32},,,,,,,,3,4,5,6,7,8,1,2,
{4}3/5-1[16:3],5x/7h[4:1],{8},2/5,{4}2/5,
{8}7<5[8:1],{16}8,1,{8}7-4[8:1],2-6[8:1],7,2,5-1[16:3],3h[4:1],
{4}5,{16}2,3,4,2,3,4,2,3,{8}4/1b<6[16:3],1,
5-8[16:3],5,{16},,,,1x,2,3,4,5/E2,E3,E4,E5,
2x/E6,3,4,5,6,7,8,1,{4}2bx-7[16:3]*-5[16:3],2b,
8xh[2:3],E1,E2,E3,
E4,E5,E6,{32}E3,B3,{16}B4,{32}E7,B6,{16}B5,
{8}1b>4[16:3],{16}8,7,{8}1-5[16:3],6,1>4[16:3],7,1-6[16:3],8-4[16:3],
1,8,2,2,7b-3[8:1],{16}6,4,{4}7,
{16}2,4,2,4,3,5,3,5,4,6,4,6,5,7,4,6,
3,5,2,4,1,2,3,4,1,2,3,4,1,2,3,4,
{8}8b-4[16:3],{16}1,3,{4}8,{8}3x/5x,7q4v6[8:5]/1p4v2[8:5],,1b/7b,
{1},{24}2bx,
E2,B1,B8/5<8[16:3],{48},,,,,,,,,,{16}1,2,3,4,,,{8}3b/8,7,
6/1,2,3/5,6,7,8,{24}1bx,E1,B8,B7/2>5[16:3],{48},,,,,,,,,,{16}6,
7,8,1,,,{8}7b/4,3,2/8,7,
6/1,2,3,4,{24}5bx,E5,B4,B3/6<1[16:3],{48},,,,,,,,,,{16}2,3,
4,5,,,{8}4b/8,7,6/4,3,2/7,6,
5,4,{24}3bx,E4,B4,B5/2<7[16:3],{48},,,,,,,,,,{16}6,5,4,3,,,{8}4b/8,
1,2/6,7,8/2,3,4,5,
{24}6bx,D6,A5,D5,A4,D4,A3,{48}D3,8p5[8:5],,,,,,{16}8,,,,,A3,D3,A2,D2,
A1,D1,A8,D8,A7,D7,A6,D6,A5,D5,A4,D4,{4}A3/8b-6-2[8:3],
{16},4,,4-1-5[8:3],,,,,A7,D8,A8,D1,A1,D2,A2,D3,
A3,D4,A4,D5,A5,D6,A6,D7,{4}4b/A7,3/5,
3/5,6/4,4/6,2/7,
{8}8,8,1,1,7,7,{16}1,2,7,6,
2,3,6,5,{4}1b-5[4:1],{24},,,,,,,,,,,,E7f,
B7,B8,E1,,,,,,{8}2,{4}2h[4:1],{8}B2,B4,
{16}A5,D6,A6,D7,A7,D8,{8}A8,1b-4-1[32:9],1,,6b-1-6[32:9],
{4}6,{8}2b-5-2[32:9],2,,7b-3-7[16:5],{4}7,
{8}1b,1,1,1,{16}1,7,2,6,3,5,4,4,
4,4,4,4,4,4,4,4,4h,4h,4h,4h,{8}4b,6bx/2bx,
E
