&title=Space Invaders
&artist=Teminite & MDK
&first=-0.33
&des=
&des_5=Xresp1e
&lv_5=14+
&inote_5=(128){4},5xw1[8:5],{8},,,,,,8bx/3,
4,B8/B7
,3,{16}B3,B2,,5,
,,,,{8}6/1,5,B1/B2,5-8b[8:1],3,5/2-5b[8:1],
,2/8,6bx,4,B8/B7,3,5,{16}B2,B1,
,,,,4h[8:1]/6h[8:1],,,6h[8:1]/4h[8:1],,,{8}3/5,{48}2/8,3,4,5,,,,,,8/1,7,6,
{8}5-1b[16:1],2/8,5bx/4,2,B5/B6,2-4[8:1],{16}5,5,,6,
,,4,4h[16:1],{8}5,3,B7/E7,{16}4-1b[8:1],5,{8}3,4/7-4b[8:1],
,1/7,3bx,5,B1/B2,{16}6,6,4-8[0.4688##0.2344],4,5,3,
,,,,1/7,7/1,,8h[8:1]/2h[8:1],,,{8}2/8,{48}7bx/1bxh[8:1],6,5,4,,,,,,2bx/8bx,3/7,6/4,
{8}5s1[16:1]*-1[16:1],4/6,{4}A5f,{8}8-4[8:1],3/5,{16}1/8,1h[8:1],,6,
{8}B1/B2,B7/B6,3-8[8:1],5/2,3,{16}6h[8:1],{32}1x,2,{8}3,{16}7<4[8:1],1,
8,1,{8}7,2-6[8:1],4/5,2/8,{16}7,7,3q5[4:1],8,2,5,
{4}3,{16}B7,B6,,E4,,E3,{24}E8,B8,B1,{16}Ch[2:1],,,E7/B6,
,,{8}E2/B1,5,7,4-8[8:1],2/5,{16}4/7,7h[8:1],,1,
{64}E7,B6,{32}B5,{64},,,,E2,B2,{32}B3,,,{8}7-4[8:1],5/1,7/3,{16}2,2h[8:1],{32}5x,6,{16}7,1,8,
{32}2/8,3,4,5,6,7,8,1,{8}2-6[8:1],4/8,2/5,{16}7,7,1s5[4:1],8,2,1,
,,,,3xh[16:3],,,5xh[16:3],,,2x,2x,8xh[6:1],{48},,,,,,1x,2x,3x,
{8}6x-4[16:1]/4x-2[16:1],7x,{4}4b/6b-8-2[4:1],{8}2-4-6[4:1],3,6-8[8:1],5,
2,{16}3,3,{8}1h[16:3],{16}2,2,{8}8h[16:3],{16}1,1,7,5,6,4,
{8}5-7-1[4:1],2/4,1-3-5[4:1],2,5-7[8:1],4,2,{16}3,3,
{8}8h[4:1],1,3h[4:1],4,{16}6,6,{8}5,{16}4x/7x,2,1,3x/8x,
6-1b[16:1],5,{8}4x/7x,{4}6b/2bV46[4:1],{8}6V82[4:1],5,2-4[8:1],3,
6,{16}5,5,{8}3h[16:3],{16}6,6,{8}4h[16:3],{16}7,7,5,6,4,5,
{8}3V57[4:1],2/8,7V13[4:1],6,3q5[4:1],4,{4}5<3[4:1],
C,5-1[8:7],{16}3x,7x,4x,6x,2x,7x,4x,6x,
3x,8x,2x,5x,{1},,,{4},,,5/4,
{8}2b/5b,{16}3,3,{8}4h[8:1],{16}2,5h[8:1],,3,{8}6h[8:1],
4,{16}7,7,{8}5h[8:1],4h[8:1],{16}3h[8:1],,,2h[8:1]/8h[8:1],,,{8}2h[8:1]/8h[8:1],
{16},7h[8:1]/1h[8:1],,,,4,5,3,{8}3h[8:1],{16}4,2h[8:1],,5,{8}1h[8:1],
{16}6h[8:1],,,8,8,7,{8}1h[8:1],6,{32}3,4,{16}3,{8}5h[8:1],2,
{32}5x,4x,3x,2x,1x,8x,7x,6x,{8}5x-8[16:27],{16}3,3h[16:1],,,2,2h[16:1],,2h[16:1],,,{8}4,
3h[16:1],3h[16:1],4,2,{16}5-8b[16:1],4,6,4,{8}5,
{32}1x,2x,3x,4x,5x,6x,7x,8x,{8}1x-5[16:27],1xh[16:1],{16},,2,2h[16:1],,,{8}3,
8,7h[16:1],7h[16:1],8,7,{16}1-5b[16:1],8,2,8,{8}1,
{32}4x,3x,2x,1x,8x,7x,6x,5x,{8}4x/7b,3,5/2,{16}6,5,{8}4/7,3,
5/2,{16}2,1,{8}3/8,7,6/1,{16}2,1,{8}3/8,7,
6/1,{32}B1,B5,B3,B7,{8}C,{16}5x,5,4x,4,7x,7,3x,3,6x,6,
2x,2,8x,8,{48}E4,E5,E6,E7,E8,E1,E2,E3,E4,E5,E6,E7,E8,1x,2x,3x,4x,5x,6x,7x,8x,1x,2x,3x,{4}4x/Ch[2:1],
{32},,,,,,,,,,,,,,,,3xh[16:3]/A6,E7,B7,B8,E1,A1,,,7xh[16:3]/A2,E3,B3,B4,E5,A5,,,{8}5x/2x,
3,4/7-4[8:1],4-8[8:1],7/3,2,2q6b[8:1],6p2b[8:1],
{4}2/5,{8}7-1[8:1],{32}2x,3x,{16}4x,{8}7V58[4:1],3,7,2,
3-5[8:1],7,3-8[8:1],6,3q5b[4:1],7,{4}3/5p3b[4:1],
,Ch[8:1],{32}6xh[16:3]/A3,E3,B2,B1,E1,A8,,,2xh[16:3]/A7,E7,B6,B5,E5,A4,,,{8}4x/7x,
5,6/2-6[8:1],6-1[8:1],2/5,4,4q8b[8:1],8p4b[8:1],
{4}4/2,{8}3qq5[4:1],2x/5xh[4:1],{4}3b,{8}7qq1[4:1],8x/3xh[4:1],
{4}7b,{16}4x,8,2,7,3x,5,1,6,{32}2x,3,4,5,6,7,8,1,
6x/2,5,4,3,2,1,8,7,{48}6/Cf,{192}B1,,,B5,{16},,,{64},{192},{32}5xh[16:3]/A2,E2,B1,B8,E8,A7,,,1xh[16:3]/A6,E6,B5,B4,E4,A3,,,{8}6x/4x,
7,8/3-8[8:1],8-4[8:1],7/3,6,7p3b[8:1],3<6b[8:1],
{4}7/4,{8}2-6[8:1],{32}7x-1[8:1],6x,{16}5x,{8}2V48[4:1],7,2,6,
7-4[8:1],2-6[8:1],7-1[8:1],2,7q1b[4:1],2,{4}7/1p7b[4:1],
,Ch[8:1],{32}4xh[16:3]/A7,E8,B8,B1,E2,A2,,,8xh[16:3]/A3,E4,B4,B5,E6,A6,,,{8}5x/3x,
6,3/7-3[8:1],3-8[8:1],7/4,5,4>1b[8:1],1q5b[8:1],
{4}4/6,C,,,4-8b[16:19],
{16}E7,B2,E6,B3,B7,B1,B6,E3,5x,2x,7x,3x,
6x,1x,7x,4x,,,,,{8}2b/5b,{16}3,4,{8}2>5[8:1],{16}1,8,
{8}2,6,4/7-4[8:1],{16}6,5,{8}7,3,5/2-8[8:1],{16}4,4,
{8}2,5,1/6bx,{16}2x,4,{8}3-8[8:1],{16}4x,5,{8}3>5b[4:1],7,
{4}3x/8,{16}8,7,{8}6x-1[8:1],5,6x/4,{16}3,3,{8}8x-4[8:1],
2-5b[8:1]*-6b[8:1],8x,{4}A2,{8}7b/4b,{16}6,5,{8}7<4[8:1],3/8,
7,1,3-8[8:1],{16}4,5,{8}3,6,1/5-7[8:1],{16}2,2,
{8}5,3,4bx/7,{16}6x,5,{8}7-3[8:1],{16}8x,1,{8}7>2b[8:1]*<4b[8:1],4x,
{4}7,{16}3x,3,5x,2,7x,7,1x,6,{32}2x,3,4,5,8x,7,6,5,
1x,2,3,4,7x,6,5,4,{4}Cf,{8}4b/7b,{16}6,5,{8}7-4[8:1],{16}8,1,
{8}7,3,5/2>5[8:1],{16}3,4,{8}2,6,7/4>1b[8:1],{16}6,6,
{8}4,5,5bx/2,{16}3x,4,{8}2-5[8:1],{16}1x,8,{8}2>8b[4:1],6,
{4}2x/5,{16}5,6,{8}7x-3[8:1],8,7/1,{16}2,2,{8}5x-1[8:1],
3-7b[8:1]*-8b[8:1],5x,{4}A3f,{8}2b/8b,{16}3,5,{8}4V28[16:3],6/2,
8,6,4-7[8:1],{16}5,3,{8}4,2,2/5<8b[8:1],{16}3,3,
{8}5,4,3bx/8,{16}7x,5,{8}6-1[8:1],4x/7,6>3b[8:1],3xq8b[8:1],
{4}6/2,{16}2x,2,8x,3,7x,7,4x,6,{32}2x,E3,B3,B4,8x,B7,B6,E6,
1x,A2,D3,A3,7x,A6,D6,A5,{4}Cf,,,,5/3,
{64}E7,B6,,,,,,,{16}4,4h[8:1],,6,,3,
{8}3h[8:1],5,6/4,{24}E4,B3,B2,{8}E2,{16}7,7,,8,,3,
{8}3,4,{16}E8,B4,B6,B2,,C,,B3,B7,B1,B5,C,
,E4/B4,{8}E7/B7,2x/5x,3,4/B6,{16}3,3,B7,4,{8}4,
{64}E8,3,,,,,,,,,,,,,,,{8}6/E4,5,6/B3,{16}5,5,{8}B2,E7,
E2/E6,E5,{16}3,6,5,6,2,5,4,5,1,4,3,6,
2,5,4,7,{8}8/2x,{32}3x,4x,{16}3x,7,{32}4x,5x,{8}4xh[8:3],{4}Cfh[4:1],
{16},,,,7x-4[8:1],6,{8}5,7/4,{16}3,3h[8:1],,5,,4/2,
,1,{8}1-3[8:1],7-4[8:1],1,7,{16}3,3h[8:1],,5,,6,
{8}6-4[8:1],3,6,{24}2,3,4,{8}5-1[8:1],{16}6,6,,7,,2,
{8}2,3,{16}E7,B6,B5,E5,,E3/E2,,B7/E7,E2,B2,B3,E4,
,B5/E6,{8}B1/B2,{16},6,6,4,{8}5-8[8:1],{16}3,3,,2,{8}2h[8:1],
{32}E8,E1,E2,E3,E4,E5,E6,E7,{16}2,2,1,3,7,5,6,6,{8}4-1[8:1]*-7[8:1],3/5,
{4}4,{16}2x,2,4,3,6x,6,5,7,4x,4,8,8,
2x,2,6,6,{4}1s5[4:1]*s5[4:1],{2}5V71[8:3]*V31[8:3],
{8},,8/2,{16}3,{32}7x,6,{16}5-7[8:1],2,{8}6,5/4h[16:1],3h[16:1],
2/8h[16:1],7h[16:1],6/1h[16:1],2h[16:1],5h[16:1]/3-5[8:1],6h[16:1],3/7-4[8:1],{16}6,6,
{8}4,3,5/2,1,{16}6/3,6,{24}4,3,2,{16}8-6[8:1],1,{8}1h[16:1],
{16}8-4[8:1],3,{8}3h[16:1],{16}8,2,2h[16:1],{32}5x,6,{16}7-1[8:1],3,{8}8,7/4h[16:1],3h[16:1],
2/8h[16:1],7h[16:1],6/1-5[8:1],4/3,1/8,{16}6,6,4-1[8:1],5,{8}3,
7/4,{16}8,8h[8:1],,2,{24}2,3,4,{16}7/5,7,7,{32}4x,3,{16}2-8[8:1],6,{8}1,
2/5h[16:1],6h[16:1],{16}1x/7,2,5,4,7x,2,1,4,6x,6,3,8,
2x,2,7,4,{32}6x,5,4,3,2,1,8,7,6/2x,3,4,5,6,7,8,1,{16}2/5x,E7,E8,E1,
Cfh[4:1],E3,E4,E5,{4},,,,,,,,2h[4:1],
,3h[4:1],
,5h[4:1],,4h[4:1],
,7xh[4:1]/B7,,6xh[4:1]/B6,
,5xh[4:1]/B5,,4xh[4:1]/B4,
,3xh[4:1]/B3,,2xh[4:1]/B2,
,1xh[4:1]/B1,,7xh[4:1]/B7,
,3b/5xh[2:1],4,3h[2:1],
4,8h[2:1],1,2h[2:1],
1,6h[2:1],5,4h[2:1],
5,7h[2:1],5,B3,
B8,4h[2:1],B4,7h[2:1],
B7,1h[2:1],B1,6h[2:1],
B6,3h[2:1],B3,5h[2:1],
B5,2h[2:1],B2,8h[2:1],
B3,Ch[2:7],,,,,,,,,,,,,,,1/8,
{8}7b/4b,{16}6,6,{8}5h[8:1],{16}7,7h[8:1],,4,{8}4h[8:1],
6,{16}6,6,5,5,{8}7h[8:1],4,{32}6,5,{16}6h[8:1],,4,{8}4h[8:1],
{16}7,7h[8:1],,,{8}3,{16}5,5,{8}3h[8:1],{16}4,4h[8:1],,2,{8}2h[8:1],
5,{16}3,3,{8}4h[8:1],2h[8:1],5,{32}3,4,{16}3h[8:1],,5,{8}5,
{32}4x,5,6,7,8,1,2,3,{8}4-8[0.4688##3.1641],{16}6,6h[16:1],{8}B4,{16}5,5,,6,{8}6h[16:1],
C,{16}7,7,6,6h[16:1],,,{8}B8,{16}5-8b[16:1],4,6,4,{8}5,
{32}1x,2,3,4,5,6,7,8,{8}1-4[0.4688##3.1641],1xh[16:1],E2,{16}7,7h[16:1],,6,{8}6,
E3,6h[16:1],6h[16:1],7,E4,{16}8-4b[16:1],1,7,1,{8}8,
{32}5x,6,7,8,1,2,3,4,{8}5/2b,6,7/4,{16}3,3,{8}2/5,6,
7/4,{16}7,7,{8}6/1,2,3/8,{16}7,7,{8}6/1,2,
3/8,{32}B8,B4,B6,B2,{8}C,{16}4x,4,3x,3,2x,2,1x,1,8x,8,
7x,7,6x,6,{48}E5,E4,E3,E2,E1,E8,E7,E6,E5,E4,E3,E2,E1,7x,6,5,4,3,2,1,8,7,6,5,{4}4/Ch[4:1],
B7/B6/E7/B2/E3/B3,{48}1b,2b/8b,3b/7b,4b/6b,5b,,,,,6x,{96},{32}5,{16}6<1[8:1],4,7,7xh[8:1],6,{32},,,,3x,4,
{16}3<6[8:1],5,2,2xh[8:1],3,{32},,,,7x,8,{16}1,3,3,4,2/5,B6,B7,E8,
1x,E3,B3,B4,{48}7x,A6,A5,A4,A3,A2,A1,A8,{12}A7,{16}4x-7[8:1],5,3,3xh[8:1],4,{32},,,,1x,8,
{16}1s5b[8:1],E8,B2,B5,{4}1x,{32}7/4xh[16:3],6,{16}5,{32}3,2,1,8,7/3xh[16:3],6,5,4,,2,1,8,
7/2xh[16:3],6,5,4,{16}3,{32}1,8,{16}7/Ch[8:1],{32},,,,5x,4,{16}5>2[8:1],3,6,6xh[8:1],5,{32},,,,8x,1,
{16}8<5[8:1],2,7,7xh[8:1],8,{32},,,,4x,3,{48}2x/A6,E6,E5,A4,,,A2,E2,E1,A8,,,A6,E6,E5,A4,,,{16}3x,3x,
{48}8x,7x,6x,5x,,,1x,8x,7x,6x,,,E8,B7,,,,,B3,B4,,,,,{8}5h[16:3],{16}3,3,,6/4,,8,
{8}8,1/7,{16}B1,B5,E4,B7,,,E5,E1,{8}C,E7/B6/B2/E3,
{24}8xv3b[16:1],{48}A7,D7,A6,D6,A5,D5,A4,D4,,,{8}8bx,{32}6xh,7xh,8xh,1xh,{16}3xq7[8:1],4,2,2xh[8:1],3,{32},,,,8x,1,
{16}8p4[8:1],2,6,6xh[8:1],8,{32},,,,3x,2,{16}1,6,6,5,4/7,8x,8x,1x,
A6/E7,3x,3x,4x,{48}E2/A2,3x,4x,5x,6x,7x,8x,1x,{12}2x,{16}5x>2[8:1],4,6,6xh[8:1],5,{32},,,,8x,1,
{16}8z4b[8:1],2x,6x,4x,{4}A8,{32}2/5xh[16:3],3,{16}4,{32}6,7,8,1,2/6xh[16:3],3,4,5,,7,8,1,
2/7xh[16:3],3,4,5,{16}6,{32}8,1,{16}2/Ch[8:1],{32},,,,4x,5,{16}4q8[8:1],6,2,2xh[8:1],4,{32},,,,2x,1,
{16}2q6[8:1],8,3,3xh[8:1],2,{32},,,,7x,8,{64}1x/A3,D4,A4,D5,{16}A5,{64}A7,D8,A8,D1,{16}A1,{64}A3,D4,A4,D5,{16}A5,{24}7x,5x,6x,
3x,4x,2x,6x,5x,8x,{4}3x/Cf,,,5-1b[16:19],
{16}4x,7x,2x,6x,3x,8x,2x,6x,4x,4x,7x,7x,
2x,2x,5x,5x,{32},,,,,,,,5b/2b,3,4,5,6,7,8,1,6/2,3,4,5,6,7,8,1,
7/2,3,4,5,6,7,8,1,{8}2/5V73[4:1],7,{4}5/4h[8:1],{8}2,{16}1-5[16:1],8,
{8}2,1/7,{32}7/4x,6,5,4,3,2,1,8,3/7,6,5,4,3,2,1,8,2/7,6,5,4,3,2,1,8,
{8}4/7<4[8:1],2/5,7,{16}3x,3,{8}5-8[8:1],2x,5/3-7[8:1],{16}4x,4,
{8}1-6b[8:1]*-4b[8:1],8x,{4}A1,{32}7b/4b,6,5,4,3,2,1,8,7/3,6,5,4,3,2,1,8,
7/2,6,5,4,3,2,1,8,{8}7/4V26[4:1],2,{4}4/5h[8:1],{8}7,{16}8-4[16:1],1,
{8}7,8/2,{32}2/5x,3,4,5,6,7,8,1,2/6,3,4,5,6,7,8,1,7/2,3,4,5,6,7,8,1,
2h[8:1]/E6,E5,E4,E3,E2,E1,E8,E7,{16}3x,3,5x,1,6x,6,4x,8,{32}2x,3,4,5,8x,7,6,5,
1x,2,3,4,7x,6,5,4,{48}A1f,B1,C,B5,{6}A5,{96}7b/4b,,,6,,,{32}5,4,3,2,1,8,7/3bxh[16:3],6,5,4,,2,1,8,
7/2bxh[16:3],6,5,4,{16}3,{32}1,8,{8}7/4-2[8:1],2-6[8:1],4/6,5,7,{16}8-4b[16:1],1,
{8}7,8/3,{32}2/5bx,3,4,5,6,7,8,1,2/6bxh[16:3],3,4,5,,7,8,1,2/7bxh[16:3],3,4,5,{16}6,{32}8,1,
{8}5/2q6[8:1],3/8,2,{16}7x,7,{8}4-7[8:1],3x,4/2-6[8:1],{16}3x,3,
{8}8-3b[8:1]*-5b[8:1],7x,{4}A8f,{32}2b/5b,3,4,5,6,7,8,1,2/6bxh[16:3],3,4,5,,7,8,1,
2/7bxh[16:3],3,4,5,{16}6,{32}8,1,{8}2/5-7[8:1],7-3[8:1],5/3,4,2,{16}1-5b[16:1],8,
{8}2,1/7,{32}7/4bx,6,5,4,3,2,1,8,7/3bxh[16:3],6,5,4,,2,1,8,7/2bxh[16:3],6,5,4,{16}3,{32}1,8,
7/E4,E5,E6,E7,E8,E1,E2,E3,{16}5x,5,3x,7,1x,1,5x,3,{32}7x,E7,B6,B5,1x,B2,B3,E4,
8x,A7,D7,A6,2x,A3,D4,A4,{4}Ch[8:1],{8}1b/8b<5[8:1],{16}2,2,{8}8,3,
4-8[8:1],{16}2,2,{8}4,3,7/4>1[8:1],{16}6,6,{8}4,{16}7,7,
{8}8-3b[8:1],6,8b/5b-1[8:1],6x-8[8:1],5,6x,1V37b[4:1],8x,
{4}1/6,{8}5<8[8:1],{16}1x,1,{8}5,2x,3/8,{16}4x,4,
{32}7b,6,5,4,3,2,1,8,{4}7/D4/A3/E4f,{8}6b/4b>1[8:1],{16}5,5,{8}4,6,
8-3[8:1],{16}7,7,{8}8,6,2/5<8[8:1],{16}3,3,{8}5,{16}4,4,
{8}7-3b[8:1],2,7b/1b-5[8:1],2x-4[8:1],1,2x,5V72b[4:1],4x,
{4}5/3,{16}4x,4,8x,8,2x,2,6x,6,{32}1x,2,3,4,5,6,7,8,
3x,4,5,6,7,8,1,2,{48}3/A8f,B8,C,B4,{6}A4,{24}1b/7b<4[8:1],,,8,{48},{16}8,{8}7-3[8:1],2,
7/4>1[8:1],{16}5,5,{8}4-8[8:1],7,4/6-1[8:1],{16}5,5,{8}6/1,{16}2,2,
{8}8<5b[8:1],1,8b/2b-6[8:1],{16}3x,3,{8}2-4[8:1],5x-1[8:1],2,5x,
{32}D4/A3/E4,D5,D6,D7,D8,D1,D2,D3,{8}8<5[8:1],{16}4,4,{8}8,3,6/1,{16}5,5,
{32}2b,3,4bx,5,6bx,7,8bx,1,{4}2bx/A6/B6f/E6,{8}4b/3b>8[8:1],{16}5,5,{8}3-7[8:1],6,
3/5<8[8:1],{16}4,4,{8}5-1[8:1],3,5/2-6[8:1],{16}3,3,{8}8/2,{16}7,7,
{8}5<8b[8:1],3,5b/2b-6[8:1],{16}3x,3,{8}2/8,{16}7,7,{8}1w5b[8:1],2/8,
{64}1b,B1f,,C,,B5,,,,,,,,,,,{16}6b,6,{48}2b,3,4,5,,,{16}7b,7,{48}1b,2,3,4,,,8b/3x,7,6,5,4,3,2,1,8,7,6,5,
1b/4x,2,3,4,5,6,7,8,1x,8/2,3/7,6/4,{8}5bx,4,B8/B7,3,,B2/B3,
{4}B6/B5,{8}6/1,5,B1/B2,5-8[8:1],3,5x/2x-5[8:1],
,2x/8x,6x,4,B8/B7,3,5,B2/B3,
{4}B6/B5,{16}4h[8:1]/6h[8:1],,,6h[8:1]/4h[8:1],,,{8}3/5,{48}2x,3x,4x,5x,,,,,,8x,7x,6x,
{8}5xw1b[16:1],6x/4x,{4}5x,{8}B5/B6,2-4[8:1],5,2,
{4}B7/B6,{8}5,3,B7/E7,4-1[8:1],6,4x/7x-4[8:1],
,1x/7x,3x,5,B1/B2,6,4-8[0.4688##0.2344],5/3,
{16}4,,,,1h[8:1]/7h[8:1],,,7h[8:1]/1h[8:1],,,{8}2/8,{48}2x,3x,4x,5x,,,,,,6x/4x,7x/3x,8x/2x,
{8}1xs5[4:1]*-5[4:1],2x/8x,
E
