&title=隔絶≡タナトス
&artist=ろひ
&first=0
&des=暮涅≡オノサカ
&lv_5=14
&inote_5=(200)
{1},
{4},,,{8}3,2,
{4}1-5[2:1]/5,,{16}6,,,7,,,8,,
{4}8-4[2:1]/4,,{16}3,,,2,,,1,,
{4}1-5[2:1]/5,,{16}6,,,7,,,8,,
{16}8qq5[8:5]/4,,,3,,,2,,{4}2v5[8:1],2,
{8}6h[4:3]/4,3,2,1h[8:11],{2},
{8}5,6,7,8h[8:3],{2},
{8}1h[4:1]/8h[4:1],,,2h[4:1]/7h[4:1],,,36,,
{16}75,,,24,,,36,,{4}1-5[8:1]/8-4[8:1],1b/8b,
{8}2-6[8:1],2,1,8,7,7,{16}5V73[4:1],6,{8}5,
{8}4,3,2,2,1/8h[8:1],6h[8:1],4h[8:1],2h[8:1],
{8}7-3[8:1],7,8,1,2,2,{16}4V26[4:1],3,{8}4,
{8}5,6,7,7,{12}18,2,3,46,7,8,
{8}1/3b-7[8:1],3,4,5,6,6,{16}8V62[4:1],7,{8}8,
{8}1,2,3,3,4/5h[8:1],7h[8:1],1h[8:1],3h[8:1],
{6}5,46,57,68,57,46,
{6}37,26,15,{2}4b-7[8:1]/8bV25[4:1],
{8}8,8,4<7[8:1],3,2h[4:1],,1-5[8:1],1,
{8}3>8[8:1],3,7,6,5h[4:1],,3,2,
{8}1-5[8:1],1,5>2[8:1],6,7h[4:1],,8-4[8:1],8,
{8}6<1[8:1],6,2,3,4h[4:1],,6,7,
{8}8<5[8:1],8>3[8:1],8-4[8:1],,,,3,2,
{8}1-5[8:1],6<1[8:1],1>4[8:1],6,,,2,1,
{8}8-3[8:1],8,7,6,5-8[8:1],5,4,3,
{8}2-6[8:1],4-8[8:1],2,4,5b,,6,7,
{8}8-4[8:1],1-3[8:1],8,1,5,5,{16}3V15[4:1],4,{8}3,
{8}5,6,7,7,7/8h[8:1],6h[8:1],4h[8:1],2h[8:1],
{8}1-5[8:1],8-6[8:1],1,8,4,4,{16}6V84[4:1],5,{8}6,
{8}4,3,2,2,{12}8,5,6,1,4,3,
{8}5b-1[8:1],4-2[8:1],5,4,8,8,{16}2V48[4:1],1,{8}2,
{8}8,7,6,6,6/5h[8:1],7h[8:1],1h[8:1],3h[8:1],
{6}1,35,57,68,64,42,57,13,68,{2}2b-6[8:1]/7bV15[4:1],
{8}4,4,8>3[8:1],7,6h[4:1],,5-1[8:1],5,
{8}7<4[8:1],7,3,2,1h[4:1],,7,6,
{8}5-1[8:1],5,1<6[8:1],2,3h[4:1],,4-8[8:1],4,
{8}2>5[8:1],2,6,7,8h[4:1],,2,3,
{8}4>1[8:1],4<7[8:1],4-8[8:1],,,,7,6,
{8}5-1[8:1],2>5[8:1],5<8[8:1],2,,,6,5,
{8}4-7[8:1],4,3,2,1-4[8:1],1,8,7,
{8}6-2[8:1],8-4[8:1],6,8,1b,,2,3,
{2}4>6[2:1]/5b,6<4[2:1],
{4}5,5qq1[8:5],7,,
{16}8,,,8,,,8,,{4}1qq5[8:5]/7,2,
{4}3,3qq3[8:3],3,,
{2}5<3[2:1]/4,3>5[2:1],
{4}4,4pp8[8:5],2,,
{16}1,,,1,,,1,,{4}8pp4[8:5]/2,7,
{4}6,6pp6[8:3],6,,
{8}4-1[8:1],5,,5,6-1[8:1],5,,5,
{8}3-8[8:1],4,,4,5-8[8:1],4,,4,
{8}2-5[8:1],1,2,1,7-4[8:1],8,7,8,
{8}1-5[8:1],7,1,8w4[8:1],,8,,,
{8}6b/5b,5b/6h[4:3],,4,,3,,2,
{8}1b/8b,8b/1h[4:3],,7,,6,,5,
{8}4b/3b,4b/3h[4:1],{16}4,5,6,7,{8}1b/8b,1b/8h[4:1],{16}1,2,3,4,
{1}5bw1[2:1]/6b,
{1}7b/3h[1:1],
{1}4h[1:1],
{1}5h[1:1],
{2}6h[1:1],{4}3,3,
{8}3,4,3,3,4,3,4,5,
{8}6,5,6,6,5,6,5,4,
{8}3h[8:3],,,1h[8:3],,,8h[4:4],,
{16}7,,,6,,,5,,{2}4h[4:1],
{4}2b/6h[1:1],5,{16}5,,,5,,,5,,
{4}5h[1:1],4,{16}4,,,4,,,4,,
{4}4h[1:1],3,{16}3,,,3,,,3,,
{16}3h[2:1],,,6,,,6,,{4}6h[2:1],3,
{16}2b,4,3,4,3,4,3,4,3,4,3,4,3,4,2b,,
{16}7b,5,6,5,6,5,6,5,6,5,6,5,6,5,7b,,
{16}1b,8,1,8,1,8,1,8,2b,7,2,7,2,7,2,7,
{16}3b,6,3,6,4b,5,4,5,{32}4b,3,2,1,8,7,6,5,4bw8[8:1],3,2,1,8,7,6,5,
{4},
{8}2-6[8:1],2,7-3[8:1],7,{16}2>5[16:1],,,{24}1b/2,8,7,{16}6,{8},
{8}6-2[8:1],6,1-5[8:1],1,{16}4<7[16:1],,,{24}3b/4,2,1,{16}8,{8},
{8}1-3[8:1],8-4[8:1],1-5[8:1],8,{16}1V35[8:1]*V75[8:1],,,1b,{4},
{16}3h[8:1]/7h[8:1],,,2h[8:1]/6h[8:1],,,{8}51,4b-7[8:1]/8b-3[8:1],,4b/8b,,
{8}2-4[8:1],1-5[8:1],2,1,8-4[8:1],7-5[8:1],8,7,
{8}2-6[8:1],3-7[8:1],2,3,5-1[8:1],8-4[8:1],5,8,
{8}2,3-8[8:1]*-6[8:1],,3,,17,28,13,
{16}4qq8[8:5]/2h[8:1],,,1h[8:1],,,8,,{4}7-5[8:1],7b,
{8}7-3[8:1],7,2-6[8:1],2,{16}5h[16:3],,,{32}7b,8,1,2,3,4,{8}57,
{8}4-8[8:1],4,6-2[8:1],6,{16}1h[16:3],,,{32}3b,4,5,6,7,8,{8}13,
{8}5-7[8:1],4-8[8:1],5-1[8:1],4,{16}5,,,{24}2b/8b,37,46,{16}5,{8},
{16}7h[8:1]/3h[8:1],,,8h[8:1]/4h[8:1],,,{8}51,6b-3[8:1]/2b-7[8:1],,6b/2b,,
{8}6-8[8:1],5-1[8:1],6,5,4-8[8:1],3-1[8:1],4,3,
{8}7-3[8:1],6-2[8:1],7,6,4-8[8:1],1-5[8:1],4,1,
{8}7h[8:3],,,{32}8b,1,2,3,4,5,6,7,8,1,2,3,{8}4h[4:1]/8b-5[8:1],,
{16}8bqq4[8:5],,,3b,,,2b,,{4}2b-6[8:1],2b,
(205)
{8}3,2,{16}1>4[8:1],8,{8}1,8,7,{16}6<1[8:1],5,{8}6,
{8}5,4,{16}3,2,3,,{32}8-4[8:1],7,6,,2-6[8:1],3,4,,{8}8,2,
{8}1,8,{16}7>2[8:1],6,{8}7,6,5,{16}4<7[8:1],3,{8}4,
{8}3,2,{16}1,8,1,,{12}7b,5b,3b,{16}1,1,1,1,
(210)
{8}2,7,{16}8<5[8:1],1,{8}8,1,2,{16}3>8[8:1],4,{8}3,
{8}4,5,{16}6,7,6,,{32}1-5[8:1],2,3,,7-3[8:1],6,5,,{8}1,7,
{6}8b,1b/7h[12:1],2b/6h[12:1],3b/7h[12:1],4b/8h[12:1],5b/1h[12:1],
{1}6b>7[2:1]/2<3[2:1],
(215)
{4}2v5[8:1]/6-1[8:1],2b/6b,{8}4-8[8:1],4,6-2[8:1],6,
{8}1-5[8:1],8,1/7-3[8:1],8,7b/1>4[8:1]*<6[8:1],,1b,,
{4}7v4[8:1]/3-8[8:1],37,{8}5-1[8:1],5,2-6[8:1],2,
{8}8-4[8:1],7,8/1-5[8:1],2,{12}1/6,7,8,4,3,2,
{4}1/8-4[8:1],6-2[8:1]/8,56,{8}4-2[8:1]/1-5[8:1],8,
{8}14,,1-5[8:1]/6-8[8:1],8,1bw5[8:1]/6,,{4}1b,
{6}3b/7b,1b/5b,3b/7b,2b/6b,4b/8b,2b/6b,
{6}1b/3b,6b/8b,4b/5b,{2}2b-6[8:1]/7b-3[8:1],
(220)
{8}1-5[8:1],1,7-3[8:1],7,2-6[8:1],2,8-4[8:1],8,
{8}2/8-3[8:1],1,6/8-5[8:1],7,{8}2/8>3[8:1],1,6/8<5[8:1],7,
{8}2-6[8:1],2,1-5[8:1],1,8-4[8:1],8,7-3[8:1],7,
{8}6-2[8:1],6,5h[4:1],,{12}1,4,3,8,5,6,
(205){8}1b-5[8:1],1,1/8-4[8:1],8,8/2-6[8:1],2,2/7-3[8:1],7,
(190){4}7/8-4[8:1],1-5[8:1]/8,2-6[8:1]/1,2/7-3[8:1],
(175){2}7/1h[#1.3107],
(160){12}6,7,8h[4:1],,,,
(150){12}27,36,4h[4:1]/5h[4:1],{4},4bw8[1:2]/5bw1[1:2],
