&title=Luna say maybe (gaburyu Remix)
&artist=月村手毬 / gaburyu
&first=0.19
&des=Aza
&lv_6=13+
&inote_6=(139)
{2},{12},4hx[12:3]/5hx[6:1],,{4},
{16}6-1[1:1],,,5,,,4,,,3,,,2,,,3,,,4,,,5,,,{8}6,6,4,5,{16}3-8[1:1],,,4,,,5,,,6,,,7,,,6,,,5,,,4,,,{8}3,5,{16}6,6,4,5,{16}2-5[1:1],,,6,,,7,,,8,,,1,,,8,,,7,,,6,,,{8}7,1,8,2,{16}7-4[1:1],,,3,,,2,,,1h[16:1],,,8h[16:1],,,1h[16:1],,,2h[16:1],,,3h[16:1],,,5,5,4,4,{8}6h[8:1],5,
{4}3h[8:1]/7b-4p6[2:1],3h[8:1],3h[8:1],{16}3,,4,5,{4}3qq5[2:1],6h[8:1],7h[8:1],{8}8,{32}8,7,6,5,{4}2-6q3[2:1],4h[8:1],4h[8:1],{16}5,,5,4,{4}6pp4[2:1],3h[8:1],2h[8:1],{8}1x,1x,{4}2-6p1[2:1]/8h[8:1],8h[8:1],8h[8:1],{16}8,,7,8,{4}6qq7[2:1],8h[8:1],1h[8:1],{8}2,{32}2,3,4,5,{4}7-3q8[2:1],1h[8:1],1h[8:1],{16}1,,2,1,{4}3pp2[2:1],1h[8:1],8h[8:1],{8}7x,{16}7x,6x,5x/1,2x,3hx[8:1],,,,8,7x,6x-1[8:1]/2,3x,4hx[8:1],,,,2,3x,4x/8,7x,6hx[8:1],,,,1,2x,3x-8[8:1]/7,6x,5hx[8:1],,,,7,6x,5x/1,2x,3hx[2:1],,{4}8h[8:1],7h[8:1],6h[8:1],{8}5h[16:1],5h[16:1],4h[16:1]/6h[16:1],4h[16:1]/6h[16:1],3h[16:1]/7h[16:1],3h[16:1]/7h[16:1],2h[16:1]/8h[16:1],,8!z4[69.5#16:3],,
{4},,3h[4:1],
{24}2b,1x,8x,7x,6x,5x,4x-7-1-5[8:3],3x,2x,1x,8x,7x,{8},,,{24}7,8x,1x,2x,3x,4x,7,8x,1x,2x,3x,4x,5hx[4:3],,,{2}6-1b[8:1],{24}3b,2x,1x,8x,7x,6x,5x-1-3-6[8:3],4x,3x,2x,1x,8x,{8},,,8-4[8:1],,,2-5[8:1],1,4b,6,7h[4:1],,
{24}8b,1x,2x,3x,4x,5x,6x-1-7-4[8:3],7x,8x,1x,2x,3x,{8},,,{24}3,2x,1x,8x,7x,6x,3,2x,1x,8x,7x,6x,5hx[4:3],,,{2}1-6b[8:1],{24}7b,8x,1x,2x,3x,4x,5hx[8:1],,,7b,8x,1x,2x,3x,4x,5hx[8:1],,,7b,8x,1x,2x,3x,4x,5hx[8:1],,,7b,8x,1x,2x-5V38[8:3],3x,4x,5x,,,{8}E7h[2:1],,,,
{24}1b,2x,3x,4x,5x,6x,7x-3-1-6[8:3],8x,1x,2x,3x,4x,{8},,,{24}4,3x,2x,1x,8x,7x,4,3x,2x,1x,8x,7x,6hx[4:3],,,{2}2-5b[8:1],{24}7b,8x,1x,2x,3x,4x,5x-1-7-4[8:3],6x,7x,8x,1x,2x,{8},,,3-7[8:1],,,6-1[8:1],5,8b,2,3h[4:1],,{24}8,7x,6x,2x-5[8:1],3x,4x,,,,2b,,,8-2[8:1],7x,6x,2x-6[8:1],3x,4x,{4}8b,{24}1,2x,3x,7x-4[8:1],6x,5x,,,,7b,,,1-7[8:1],2x,3x,7x-3[8:1],6x,5x,{4}1b,
{4}8h[2:1],1,2h[2:1],3,4pp1[2:1],,E3h[2:1],,{24}8b,7x,6x,5x,4x,3x,2x,1x,8x,7x,,,{8}3-8[8:1]/E6/A6/A5,,,7-4-6-1[2:1],,1,2-5[8:1],,B2f,,,,{24}3b,4x,5x,6x,7x,8x,1x,2x,3x,4x,,,{8}A6/E6/A5/7-2[8:1],,,3-8-2-5[2:1],,5,6-1[8:1],,B6f,,,,{24}6b,5x,4x,3x,2x,1x,8x,7x,6x,5x,,,{8}A3/E4/A4/2-7[8:1],,,6-1-7-4[2:1],,4,3-8[8:1],,B3f,,,,
{8}2/5<3[8:3],,,3,4h[4:1],,,5,4/6-1[8:1],,2,3-8[8:1],,E7,E6,E5h[8:1],
{8},1/2,1/2v8[8:1],3/8,7b<4[8:1],,,8v2b[8:1],8,,4<7b[8:1],4,,8,1,2,3hx[4:1],,5,{16}6hx[8:1],4h[16:7],{8},,,5qq8b[8:3],,,,1qq4[8:3],2b,,,,
{2}5-3-7-1^8-2-6-4[4:5],2h[4:3],{8},,,,,3,4,5x,4-6-2-8^1-7-3-5b[4:5]/6,4x/6x,,,7h[4:3],,,,,,,,,,,,
{1}A7h[24:6]/D8h[24:7]/A8h[24:8]/D1h[24:9]/A1h[24:10]/D2h[24:11]/A2h[24:12]/E2h[16:9]/E1h[16:10]/E8h[16:11]/B8h[16:12]/B1h[16:13],
{16},,,E3h[16:11],,,E4h[16:8],,,E6h[16:5],,,E7h[16:2],,,,
{4}8hbx[2:3],E5,,E5,,E5,{8},E6,E5,E4,{4}1hx[2:3],E5,,E5,,E5,{8},E4,E5,E6,2x,2x,4h[32:1],4h[32:1],3h[32:1],3h[32:1],4h[16:1]/6h[16:1],4h[16:1]/6h[16:1],7x,7x,5h[32:1],5h[32:1],6h[32:1],6h[32:1],5h[16:1]/3h[16:1],5h[16:1]/3h[16:1],
{24}2b,1x,8x,7x,6x,5x,{8}4hx[8:1],{24}2b,1x,8x,7x,6x,5x,{8}4hx[8:1],{24}2b,1x,8x,7x,6x,5x,{8}4hx[8:1],{24}2b,1x,8x,7x-4-6-1[8:3],6x,5x,{8}4x,{2}E3h[2:1],
{24}8b,7x,6x,5x,4x,3x,2x-6-8-3[8:3],1x,8x,7x,6x,5x,{8},,,{24}5,6x,7x,8x,1x,2x,5,6x,7x,8x,1x,2x,3hx[4:3],,,{2}5-2b[8:1],{24}1b,8x,7x,6x,5x,4x,3x,2x,1x,8x,7x,6x,{8}5hx[2:1]/2b,,,{24}3b,2x,1x,8x,7x,6x,2b,1x,8x,7x,6x,5x,1b,8x,7x,6x,5x,4x,8b,7x,6x,5xpp3[8:3],4x,3x,2x,1x,8x,
{2},{8}2h[4:1],,,1>4[8:1],,,,5<8[8:1],6h[2:1],,,,{24}1b,2x,3x,4x,5x,6x,7xpp6[8:3],8x,1x,2x,3x,4x,{8},,,5,4-2[8:1],,1-5[8:1],7,{2}5b,
{24}8,7x,6x,2x-5[8:1],3x,4x,,,,2b,,,8-2[8:1],7x,6x,2x-6[8:1],3x,4x,{4}8b,{24}1,2x,3x,7x-4[8:1],6x,5x,,,,7b,,,1-7[8:1],2x,3x,7x-3[8:1],6x,5x,{4}1b,
{24}5-2[8:1],6x,7x,8x,1x,,,,,1,8x,7x,{8}6x-1[8:1]/2b,,,{24}4-7[8:1],3x,2x,1x,8x,,,,,8,1x,2x,{8}3xqq8b[8:3]/7b,,E6/B5/E5,,,
{24}7,6x,5x,1x-5[8:1],2x,3x,,,,1b/7x,,,8-6-1[4:1],7x,6x,2x,3x,4x,8b,,,,,,2,3x,4x,8x-4[8:1],7x,6x,,,,8b/2x,,,1-3-8[4:1],2x,3x,7x,6x,5x,1b,,,,,,
{4}7h[8:1],6h[8:1],5h[8:1]/1h[8:1],4h[8:1]/8h[8:1],{8}3h[16:7]/7h[16:1],8h[16:1],1h[16:1],2h[16:1],{24}3b,4x,5x,6xqq4qq2qq8qq6[1:1],7x,8x,1x,2x,3x,
{8}6b,,,,,E5/B4/E4,,,{24}3h[8:1],,,7,8x,1x,2x,3x,4x,7-4[8:1],8x,1x,2x,3x,4x,{4}7b,3xpp5pp7pp1pp3[8:7],3b,,E6/B5/E5,{8},6h[8:1],{24}2,1x,8x,7x,6x,5x,2-5[8:1],1x,8x,7x,6x,5x,{4}2b,8x-3-6^4-7-2[4:3],{24}7x,6x,5x,{8}4hx[8:3],,,,,,{16}5x,6x,7hx[4:1]/4,,,,1x-6[8:1],2x
,{8}3hx[4:1]
,,,{4}4x-7-2^8-3-6[4:3]*w8[8:1],{8},A8f/D1/D8,,,,,{16},,1x,2x,3hx[4:1]/8,,,,5x-2[8:1],6x,{8}7hx[4:1],,,{24}8,,8x,1x/7x,2x/6x,3x/5x,
{1}4b>5[2:7],,,{4},,,{1}5!<4[2:7],,,,{8},,
{16}7-4[1:1],,,3,,,2,,,1,,,8,,,1,,,2,,,3,,,{8}2,8,1,7,{16}2-5[1:1],,,6,,,7,,,8h[16:1],,,1h[16:1],,,8h[16:1],,,7h[16:1],,,6h[16:1],,,5h[16:1],,,4h[16:1],,,3h[16:1],
