&title=Disco Killer Music Lover
&artist=Zekk
&first=0
&des=Loud Killer Noixz Lover
&lv_5=14
&des_5=Loud Killer Noixz Lover
&inote_5=
(173){4},{1},{4},,{16}4,
6,4,6,
{4}4h[64:13],,,5h[5:1],
{64},,,,,,,3,,,,,,,,,{16}3,4,,4,{8}5,5,{32}6,,,,,,,1h[5:1],
{4},,{16},,,{32},8h[5:1],,,,,,,,,,,,2,
,,,2,,1,,,,1,,8,,,,8,,,,7,{64},,,,,,,,,,,,,8,,,,,,,,8-4[0.1734##0.1734],
,,,,,,,1,,,,,,,,1-5[0.1734##0.1734],,,,,,,,2,,,,,,,,2-6[0.1734##0.1734],,,,,,,,3,,,,,,,,3-7[0.1734##0.1734],,,,,,,,4,,,,,,,,4-8[0.1734##0.1734],
,,,,,,,5,,,,,,,,5-1[0.1734##0.1734],,,,,,,,6,,,,,,,,6-2[0.1734##0.1734],,,,,,,,7,,,,,,,,,,,,,,1,,,,8,
,,,1,,,,8,,,,2,,,,7,,,,2,,,,7,,,,3,,,,6,,,,3,,,,6,,,,4,,,,5,,,,4,,,,5,,,,8-5[64:5]*q5[64:5],{4},{16},,,{32},5V74[32:3]/3V14[32:3],
{4},{16},,,{64},,,8,,,,,,,,,,,{32}8,
{64},,,1,,,,,,,{32}2,,,,,,2-5[0.2601##0.1301],,,,,,2,,,,1,,,,8,{64},,,,,,,,,8,
,,,,,,,7,,,,,{32}6,,,,,,7-4[0.2601##0.1301],,,,,,7,{64},,,,,1,,,,2,,,,3,,,,4,,,,3,
,,,5,,,,3,,,,6,,,,3,,,,7,,,,3,,,,8,,,,,,,,,,,{8}2b,{16}8,7,{8}6,
{16},6,,,5,,,4bx,5bx,4bx,,,,,{8}7/1-6[0.4986##0.1301],
{64},,,8,,,,,2,,,,,,,1,,,,,,,,,,,,1,,,,,,,,,,,,8,,,,7,,,,6,,,,5,,,,1-5[64:7],,,,,,,,,,,{32}8,
{64},,,1,,,,,,,,7,,,,,,,,,,,,7-4[0.2384##0.1517],,,,,,,,,,,{32}7,,,,8,,1,,2,{64},,,,,,,,,3,
,,,,,,,,,,,,{32}3,{64},,,,,5,,,,,{32}2,,6,,1,,7,,8,,1b,{64},,,,,,,,,,,,,E1f,,,,,,,,E6f,
,,,E4f,,,,,,,,,,,,B7f/B6f,,,,,,,,,,,B2f/B3f,,,,,,,,,,,Cf,,,,,,,,,,2,,,,,,,,,,,2,
,,,,3,,,,,,,{16}3,,,{8}4,{16},5,{64},,,,,1,,,,8,,,,7,,,,,,7,,,,,{32}5,
,,,,5,,,,,{16}4w8[0.1517##0.1517],{64},,,,,,,,,,,,,,,,,,,1,,,,2,,,,,{16}3,{64},,,4,,,,7,
,,,6,,,,3,,,,5,,,,2,,,,3,,,,6,,,,4,,,,7,,,,2,,,,6,,,,3,,,,5,,,,4,,,,6,,,,3,,,,7,
,,,2,,,,8,,,,1,,,{32}8,,,,1x-5[16:1],{4},{16},,{64},,,8-5[32:3]*-3[32:3],{4},{16},,,{32},1-4[32:3]*-6[32:3],
{4},{16},,,{64},7-4[64:3]/8-4[64:3],{4},{16},,,{64},,,1-5[64:3]/2-5[64:3],
{4},{16},,,{32},{8}1,8,
{16}2,7,2,7,3,6,3,6,4,5,4,5,{4}7p5[4:1]/2q4[4:1],
{32},,,,,,,,,,,,,,,,,,,8b,{64},1x,,,2x,,,3v8[64:7],,,,,,,,,,,,7x,,,,6,
,,,,,,{32}5,,,,1-7[0.672##0.1301],,,,1-6[0.6503##0.2168],,,,1-5[0.7153##0.2818],,,,1-4[0.8454##0.1084],{4},,{16},,,{32},3/5,
,,,2/6,{64},,,,,3/7,,,,,,,,4/8V64[0.4986##0.2168],,,,,,,,,,,,1,,,,,{32}2,
,,{16}8,{64},,,,,3,,,,,,,,3bx/7bx,,,,,,,,6,,,,,,,,6bx/2bx,,,,,,,,,{32}8b/1b,{64},,,,,6b/3b,,,,,,,{16}7b/2b,
,5b-8[0.0217##0.1734]/4b-1[0.0217##0.1734],,,,E8f,{64},E2f,,,{16}Cf,,8/4,7/3,6/2,,1,1,5h[64:7],
,,,3h[64:7],{64},,,,,,,8,,,,,{16}8V64[0.1517##0.1301],{64},,,8/4,,3,,2,,1,,8,,,,,,,,,,,,8/4,,,,,,,,,,,{32}5/1,
,,,5/1,6/2,7/3,{64},,,3/8,,,,,,,,2/7,,,,,,,{32}1/6,,,,7h[64:9],{64},,,,,,,1,,,,1,,,,7-4[0.1084##0.1084],,,,,,,,,,,,,,2h[64:9],
,,,,,,,,{32}8,,8,,2-5[0.1084##0.1084],,,,,,,,6,,,,3,{64},,,2,,,,,,,,7,
,,,,{16}8,{64},1b,,,,1b,,,,1b,,,,1b,,,,1b,,,,,,,,,,,,,,,{8}Cfh[64:17],,,,,B6,
B4,B3,2xh[64:5],{64},,,,,,,2xh[64:5],{4},,{8}B7,
{64}B6,{4},{16},{32},{64}B2,,,,,,,,B3,
{4},{16},{32},B8/B1,,,,B5/B4,,,,,,,,,,,,Ch[8:3],{4},{16},,,{64},1bw5b[64:11],
,,,,,,,,,,,,,,,1b/Cf,{4},,{16},,{32}1<6[0.4986##0.3468],
{64},,,,,6>3[0.6936##0.1084],,,,,,,,3>8[0.6286##0.3035],{4},,,{16},{32},{16}8w4[0.4335##0.2601],
,8<6[0.8671##0.4986],,8>2[1.3656##0.3468],{1},{4},{16},,{64},,,6b/2b,
,,,,,,,5b/3b,,,,,,,,4b,,,,,,,,,,,,,,,{32}8h[64:17],,,,,,,,,,,,,,,,B8,
,,,C,,,,,,,,B4,,,,1h[4:1],{4},{16},,,{64},B1,
,,,,,,,C,,,,,,,,,,,,,,,,,{32}B5,,,,,,,,E8/B8/B1/E2/B2/C/B6/B5/E6/B4/E4,{64},,,,,,,,,,,,,E2/B1/B8/E8/B7/B6/E6/B5/B4/E4/C/E3,,,,,,,,,,,,,,,{8}E8/B7/B6/E6/E2/B1/C/B4/E4,
,E8/B7/B6/E6/E2/C/E4/B1/B4,,Cfh[2:1],{4},,{64}8bw4b[0.3251##0.2168],
,,,,,,,,,,,,,,8b,{4},{16},{64},,,6,,,,,,,,2,
{4},{16},{64},,,7,,,,,,,,3,{4},{16},{64},,,8,,,,,,,{32}1/7,
{64},,,,,,,2/6,,,,,,,{32}3/5,,,,4,,,,E1f/Cf/E5f/E8f/B7f/B6f/E6f/E2f/B2f/B3f/E4f,{4},{16},,,{64},,,E8f/B7f/B6f/E6f/E2f/B2f/B3f/E4f,
{4},{16},,,{64},E1f/Cf/E5f,{4},,{16},,,{64},8b/1b,
,7b/2b,,6b/3b,,5b/4b,,,,,,,,,,,{16}5h[64:13],,,,,,,,,,,,4h[5:1],
{64},,,,,,,,,,,,,,,,,,,6,,,,,,,,,{16}6,{8}5,{16}5,4,
,4,,3,{32},,,,,8h[5:1],{4},,{16},,,{32},1h[5:1],
,,,,,,,,,,,7,,,,7,,8,,,,8,,1,,,,1,
,,,2,{64},,,,,,,,,,,,,8,,,,,,,,8bx-4[0.1734##0.1734],,,,,,,,1,,,,,,,,1bx-5[0.1734##0.1734],,,,,,,,2,,,,,,,,2bx-6[0.1734##0.1734],
,,,,,,,3,,,,,,,,3bx-7[0.1734##0.1734],,,,,,,,4,,,,,,,,4bx-8[0.1734##0.1734],,,,,,,,5,,,,,,,,5bx-1[0.1734##0.1734],,,,,,,,6,,,,,,,,6bx-2[0.1734##0.1734],
,,,,,,,7,,,,,,,,,,,,,,1,,,,8,,,,1,,,,8,,,,2,,,,7,,,,2,,,,7,,,,3,,,,6,,,,3,
,,,6,,,,4,,,,5,,,,4,,,,5,,,,8bx-5b[64:5]*q5b[64:5],{4},{16},,,{32},5bxV74b[32:3]/3bxV14b[32:3],{4},{16},,,{64},,,8,
,,,,,,,1b/7b,,,,,,,,,1,,,2,,,{32}3,{64},,,,,,,,5,,,,,,,5,
,,{32}6,{64},7,,,,,,,,,{32}2,{64},,,,,,,2,,,{32}3,{64},4,,,,,,,,,,6,,,{32}7,{64},8,,,,,,,,,,2/8,,,,,{16}1bx,
1bx,1bx,1bx,1bx,{64},,,,,,,7/2,,,,,,6/2,,,,,,,,6/2,,,7/3,,,8/4,,,,,,,,,,,{32}8/4,{64},,,,,8/4,,,7/3,
,,6/2,,,,,,,,,,8,,,1,,,2,,,{32}3,{64},4,,,5,,,6,,,{32}7,{64},8,,,1,,,2,,,{32}3,{64},4w8[0##0.3685],,,,E5/B4/E4,,,,,{32}Cf/B2f/B6f,{64},,,A1/D1/A8/D8/A7,
{4},{16},{64},1,,,8,,,1,,,,,,,,,,2/7,,,3/6,,,4/5,,,,,,,,,,3,,,5,,,3,,,{32}5,
{64},3,,,,,,,,,,4,,,{32}6,{64},4,,,6,,,4,,,,,,,,,,,,2,,,{32}6,{64},1,,,7,,,8,,,,,{16}8/1,{64},,,6/3,,,,,,,{32}4,
{64},5,,,4,,,5,,,,,,B4f/B3f/B5f/B6f/B7f/B8f/B1f/B2f/Cf,{4},{16},,{64},B7f/B6f/E7f,{4},{16},{32},B2f/E3f/B3f,
,,,,,,,7,,6,{64},,,,,2,,,,3,,,,,,,,4,,,,5,,,,6,,,,7,,,,8,,,,1,,,,2b-5[0##0.1951],
,,,,,,,,,,,,,,,4,,,,,,,{8}6,{64},5,,,,6,,,{16}5,6,{64},7,,,,,,,8,,,,,,,1,
,,,2,,,,,{16}3,{64}4,,,3,,,,4,,,{32}3,,,,,{16}4,{64}7,,,4,,,,6,,,{32}4,,5,,,{16}4b,4b,
4b,4b,{8}4b,{64},3,,,,5,,,{16}3,5,{64}3,,,2,,,{32}1,{64},8,,,7,,,6,,,{32}5,{64},4,,,3,,,2,,,{32}1b,
{64},,,,,,,8,,,{32}7,{64},6,,,{32}5,,,,,,,8,{64},7,,,6,,,5,,,{32}4,{64},3,,,2,,,1bx,,,{32}1b,{64},1bx,,,1b,,,1bx,
,,{32}1b,{64},1bx,,,{32}1b,,,8,,,,1b/7b,{64},,,,,,,1,,,{32}2,{64},3,,,,4,,,5,,,4,,,{32}5,,6,{64},7,,,{16}8,
{64},,,,,2,,,,,,,,,{32}2,{64},3,,,4,,,3,,,{32}4,,5,{64},6,,,{16}7,{32},,,1/8,{64},,,8bx/1bx,,,,2bx/7bx,,,,3bx/6bx,,,,4bx/5bx,
,,,,,,,,,,,,{16}7h[64:9],{32},,,,,4,{64},,,4,,,,,{16}4,,2h[64:9],{32},,,,,5,{64},,,5,
,,,,{16}5,,8h[8:1],,2,{64}2,,,,,3,,,,3,,,{16}5,5,6,{64}6,,,7,,,{32}7,,,{16}8b,
{64},,,,,,,,,,,7-1-5-3[0.6069##0.4118],{4},,,{16},,,{32},6-2<3[0.5636##0.4769],
{4},,,{16},,,{32},1-6-3[0.5853##0.4335]/7-5[0.5853##0.4335],
{4},,,{16},,,{64},2-7-4[0.5853##0.4335]/8-6[0.5853##0.4335],
{4},,,{16},,,{64},,,8b-5b[32:3]*-3b[32:3],
{4},{16},,,{32},{8}1b-4b[32:3]*-6b[32:3],{4},{16},{64},,,7b-4b[64:3]/8b-4b[64:3],
{4},{16},,,{64},,,1b-5b[64:3]/2b-5b[64:3],{4},{16},,,{32},1,
,,,8,,,,2,,7,,2,,7,,3,,6,,3,,6,,4,,5,,4,
,5,,8bx-5b[64:5]*q5b[64:5],{4},{16},,,{64},5bxV74b[32:3]/3bxV14b[32:3],{4},{16},,,{64},,,7/1,
,,,,,,,8bw4b[0.1734##0.2384],,,,,,,,8b/Cf,
E
