&title=リプレイ
&artist=ワヲン feat. デフォ子 & 重音テト
&first=0
&des=
&des_5=SiroGin
&lv_5=13+
&inote_5=(156)
{4}3h[4:1],{8}4h[8:1],3h[8:1],{32}E1,E8,E7,E6,E5,E4,E3,E2,{4}E1f/C,
1/2v4[8:1],{8}8,7,{4}5/6v8[8:1],{8}4,3,
{4}2/1,5/6v1<7[4:1],{8}4,4,3,2,
{4}1/6v4[8:1],{8}2,2,5h[8:1],3h[8:1],6h[8:1],4h[8:1],
{4}7v5[8:1],{8}1,1,4v1[8:1]/6v1[8:1],4/6,{4},8/2v4[8:1],
{8}7,7,{4}5/6v8[8:1],3,
1/7v5[8:1],{8}2,2,{4}4/3v1[8:1],6,
{8}2/8,3,4,5,6pp1[4:1],5,4,3,
{4}2-4[8:1],2/8>6b[4:1],{2}Cfh[4:1],
{4}7/8,{8}6-3[8:1],6,{4}2V46[8:1],1h[8:1],
7h[8:1]/8h[8:1],6h[8:1]/1h[8:1],5h[8:1]/2h[8:1],3/4-6[8:1],
4/2,6/5-3[8:1],5/7,7/8-5[8:1],
2/8-3[8:1],6/8qq4[4:1],8/2h[8:1],3-6[8:1],
3/8,{8}7-4[8:1],7,{4}3<6[8:1],2h[8:1],
8/7-3-5[4:1],{8}1,1,{4}2>6[8:1],{8}2/1,1,
{4}7h[8:1]/8h[8:1],4h[8:1]/3h[8:1],2h[8:1]/1h[8:1],5h[8:1]/6h[8:1],
3/4v5-7[4:1],{8}8,1,{4}2>5[8:1],{8}2/1,8,
{4}7v4-6[4:1],{8}8,8,1v7[8:1],2,3,4,
5pp2[4:1],5<8[8:1],{2},{8}1,1,
{2}2h[4:1]/3<6[8:1],7h[4:1]/8V24[8:1],
{4}6/5v4-2[4:1],{8}7,8,{4}1v7-5[4:1],{8}2,2,
{4}3V17[8:1],{8}6,5,{4}4<8[4:1],8v5>4[4:1],
1h[8:1],{8}2,2,{4}3/4V68[4:1],8>4[4:1],
4V27[4:1],7V53[4:1],3<8[4:1],8>6[4:1],
{2}3bh[4:1],{4}7h[8:1]/8h[8:1],4h[8:1]/3h[8:1],
{16}6h[4:1]/A5,A4,A3,A2,{4}A1,{16}2h[4:1]/E2,E1,E8,E7,{4}E6,
{16}8x/7h[4:1],1x,2x,3x,{4}4x,{16}4x/3h[4:1],5x,6x,7x,{4}8x,
{8}2/1,3,4/5,6,7/8,6,5/4,3,
{4}1-7[8:1]/2-6[8:1],1-4[8:1]/2-4[8:1],1b/2b,{8}5-1[8:1],4/6,
{4}5,{8}2qq2[4:1],2,{4}2/6qq6[4:1],6,
3x>8v3[4:1],{8}7,6,{4}5v8<5[4:1],{8}2,3,
{4}4v2<7[4:1],{8}7,6,5v8[8:1]*s1[8:1],5,{4}5,
7/2v7[8:1],2/6>3[8:1],6/1h[8:1],{8}4V68[8:1],4,
{4}4/3,{8}2v5[8:1],2,{4}2/1,{8}7-4[8:1],7,
7/3-8[8:1],3,3/6-1[8:1],6,{4}6/2>6[4:1],6V41[4:1],
1>5[4:1],5V71[4:1],1V36[4:1],6>8[4:1],
{2}7bh[4:1],{8}7/8,6,5/4,3,
{4}1b/2b-6[8:1],{8}2/7-4[8:1],8,7/3-1[8:1],2,3/6-2[8:1],5,
{4}6/4w8[8:1],4,{8}1/2,3,4/5,6,
{4}8/7-3[8:1],{8}7/2-4[8:1],1,2/5-1[8:1],6,5/3-8[8:1],4,
{4}3/6-2[8:1],{8}6/7,8,1x-5[8:1],2x-6[8:1],1x,2x,
{4}4x<7[8:1],{8}1-5[8:1],1,{4}1w5[8:1],1,
5x>2[8:1],{8}8-4[8:1],8,{4}8w4[8:1],8,
{8}2/1,3,4,5,6pp1[4:1],6,5,4,
{4}3h[4:1],{8}1x-5[8:1],8x-4[8:1],1x-3[8:1],8x-6[8:1],1x,8x,
{4}3xh[4:1],{8}4h[8:1],3h[8:1],{32}E1,E8,E7,E6,E5,E4,E3,E2,{4}E1f/C,
{16}3/4,2,1,8,5,6,7,8h[8:1],,2,,1,{8}3,4/8,
{16}5/6,7,8,1,4,3,2,1h[8:1],,7,{8}8,{16}6,1,6,1,
5x,4,3,2,1,8,7,6,1x/5x,2,3,4,5,6,7,8,
{8}1x/5x,2,3/4,5,4/6,{16}7,8,7,8,7,8,
{4}6b/1b,{16}2x,3,4,5,8x,7,6,5,1x,2,3,4,
{4}5/6,{16}8,4,6,2,{8}4h[8:1],8h[8:1],6h[8:1],2h[8:1],
{4}7-3[8:1],7/8-4[8:1],8/1-5[8:1],1/2-6[8:1],
7/2,{8}8h[8:1],7h[8:1],1h[8:1],6h[8:1],2h[8:1],5,
{2}3h[4:1]/4h[8:3],6h[4:1]/5h[8:3],
2h[8:3]/4h[4:1],5h[8:3]/7h[4:1],
3h[4:1]/2h[8:3],6h[8:3]/7h[4:1],
3h[8:3]/1h[4:1],{4}6v4[8:1]/8p4[8:1],6x/8x,
2-6-4[4:1],{8}1,8,{4}7V51[4:1],{8}4,3,
2pp6[4:1],2,1,8,{4}7-5[8:1],7/3-1[8:1],
3/8-6[8:1],8/4-2[8:1],4/5-7[8:1],5/1-3[8:1],
{2}1/8h[4:1],{8}8/7,6,5/4,3,
{16}1h[4:1]/A2,E3,B3,B4,{4}E5,{16}8h[4:1]/A7,E7,B6,B5,{4}E5,
{16}3x/4h[4:1],2x,1x,8x,{4}7x,{16}6x/5h[4:1],7x,8x,1x,{4}2x,
3/4,{8}7<4[8:1],7,3>8[8:1],3,7-3[8:1],7,
{4}7/1-5[8:1],1w5[8:1],1b,{8}8-4[8:1],4,
{4}8,{8}1-5[8:1],5,{4}1w5[8:1],1,
{8}8-3[8:1],3p6[8:1],8,4,{4}4-1[8:1],{8}4/5,6,
{4}7V53[8:1],{8}7/8,1,{4}2v4[8:1],{8}2/1,8,
7-4[8:1],4<8[8:1],7,3,{4}2v5[8:1],{8}2/1,8,
{4}4-8[8:1]/7-4[8:1],4/7,{8}1-6[8:1],6q3[8:1],1,5,
{4}5<8[8:1],{8}5/4,3,{4}2>5[8:1],7>2[8:1],
4<7[8:1],1>4[8:1],6<1[8:1],3<6[8:1],
2h[4:1],{8}1,8,5/7,{16}4,6,{8}2-5[8:1],1/8,
{4}2,{8}7v4[8:1],4V68[8:1],7,3,2-6[8:1],2,
{4}2>5[8:1]*<7[8:1],2,{8}6-8[8:1],2-4[8:1],6-2[8:1],2,
{4}6,{8}3-8[8:1],8q5[8:1],3,7,6-2[8:1],6,
6x-4[8:1],3,6x-8[8:1],1,6x,2,{16}3,1,3,1,
{4}2b-6[8:1],{8}2/1,8,{4}7-3[8:1],7<4[8:1]*>2[8:1],
7,{8}2-6[8:1],6,{4}2>5[8:1]*<7[8:1],2,
{8}7x/8x,6,5,4,3qq8[4:1],4,5,6,
{4}7h[4:1],{8}2x-4[8:1],6x-8[8:1],2xv5[8:1],6xv1[8:1],2x,6x,
{2}3x<3[2:3],E4,
E5,E6,
6>6b[2:3],E6,
E5,{4}E4,1-5[8:1],
1/8,7-3[8:1],7/8,2-6[8:1],
2/8-4[8:1],8/1-5[8:1],1/7,3-8[8:1],
4/3,6-1[8:1],6/5,4-2[8:1]/8-6[8:1],
4b-7[8:1]/8b-3[8:1],8b-4[8:1]/4b-8[8:1],{2}4b/8b,
3h[4:1]/4h[4:1],3h[4:1]/5h[4:1],
3h[4:1]/6h[4:1],3h[4:1]/7h[4:1],
5h[4:1]/6h[4:1],6h[4:1]/4h[4:1],
{4}3x/6h[4:1],3x,{32}2x,3x,4x,5x,6x,7x,8x,1x,{4}2b-6[8:1],
2-4[8:1]/8-4[8:1],2/8,{8}6-8[8:1],1-5[8:1],6,1,
{4}7xqq4[4:1],{8}4,3,{4}2-7[8:1],5-2[8:1],
8-5[8:1],3-8[8:1],6-3[8:1],1-6[8:1],
{2}4-1[8:1],{8}7/8,6,5/4,3,
{4}1b/2b-6[8:1],{8}2/7-4[8:1],8,7/1-5[8:1],2,1/6-2[8:1],7,
{4}6/4w8[8:1],4,{8}2v5[8:1],6-1[8:1],2,6,
{4}3-8[8:1],{8}4/3,5,6-1[8:1],1V75[8:1],6,2,
{4}3-7[8:1],{8}3/4,5,6-1[8:1],2-5[8:1],6,2,
{4}7<3[8:1],{8}1-5[8:1],1,{4}1w5[8:1],1,
2>6[8:1],{8}8-4[8:1],8,{4}8w4[8:1],8,
{8}2x-4[8:1],6x-8[8:1],2xv5[8:1],6xv1[8:1],2x-7[8:1],6x-3[8:1],2x,6x,
{2}8xz4[8:1],{8}3,6,4,5,
{4}C,{8}E2/E8,E3/E7,{4}E4/E6,4-1[8:1],
4/6,6,{8}7/8,6,5/2,4,
{4}3>1[8:1],7<5[8:1],4>2[8:1],8<6[8:1],
5>3[8:1],1<7[8:1],6>4[8:1],2<8[8:1],
3-7[8:1],{8}5,5,{4}3-8[8:1],{8}6,6,
{4}3-1[8:1],{8}7,7,2v5[8:1]/8q4[8:1],2/8,{4},1v3[8:1],
5v7[8:1],2v4[8:1],6v8[8:1],
3v5[8:1],7v1[8:1],4v6[8:1],8v2[8:1],
5h[8:1],4h[8:1]/6h[8:1],3h[8:1]/7h[8:1],2h[8:1]/8h[8:1],
{48}1b,B1f,C,B5,{12}A5,
E
