&title=ほしのおとしもの
&artist=ああああ
&first=-0.18
&lv_4=13
&des_4=OrAngel
&inote_4=
(205){4},,,,{8}5/6h[8:3],
{4},{8}5h[4:1],,E5,B4,B3,
{4}8h[4:3],6,4,2,
{8}4/3h[8:3],{4},{8}4h[4:1],,E5,B5,B6,
{4}1h[4:1],3,{6}5x/2x,3x/6x,7x/4x,
{8}5/8h[2:1],{4},{16}B6,B5,B4,{8},{16}3/7,{8},6,
{2}3h[4:1]/4h[4:1],5h[4:1]/6h[4:1],
4-1[8:1],5-8[4:1],
4-1[2:1],5-8[4:5],
{1},Ch[1:2],
{4},,,,,{8}6x,
6x,{4}4h[8:1],5h[8:1],
3h[8:1],4h[8:1],2h[8:1],4h[8:1],
1h[8:1],5h[8:1],2h[8:1],6h[8:1],
3h[8:1],7h[8:1],8xh[8:1]/1x>5[2:1],8h[8:1],
8h[8:1],8h[8:1],2xh[8:1]/8x<4[4:3],2h[8:1],
2h[8:1],2h[8:1],3h[8:1],4h[8:1],
5/2h[8:1],{8}2h[8:1],8,{4}8h[8:1],3h[8:1],
{8}6x/4x,6x/4x,{4},{8}2bx/1bx,1bx/2bx,{4},C,
5/6,3/4,6/5,
4/3,6/5,3/4,5/6,
2/4,7/5,2/4,7/5,
1/2,7/8,8h[8:1]/2h[8:1],1h[8:1]/7h[8:1],
8b/3b,1/6,8/3,{8}1/6,2bx,
,4bx,6bx,8bx<2[8:3],{2},{4}D2f,
8h[2:1],{8}1,1,{4}2h[4:1],
C,3h[2:1],{8}5,5,{4}6h[4:1],
C,7h[2:1],{8}5,5,{4}4h[4:1],
C,3h[2:1],{8}1,1,{4}8h[4:1],
Cf,7h[8:3],{8}1,1,2,3,
{4}C,4h[2:1],{8}6,6,7,8,
{4}C,3h[8:5],{8}1,1,8,7,
{4}C,1h[4:1],{8}7h[8:1],8h[8:1],7-4[8:1],1h[8:1],
{4}7bx,5/3h[8:1],4/6h[8:1],4/2h[8:1],
5/7h[8:1],4/1h[8:1],8h[8:1]/5-1[8:1],{8}6,6,
{4}2x/5h[8:1],7/4h[8:1],1/6h[8:1],8/3h[8:1],
2h[4:1],5h[4:1],{8}4,3,2,1,
{4}8-4[8:1],5,{8}5,6,7,8,
{4}1-5[8:1],4h[8:1],{8},3h[4:1],{4},1/2h[4:1],
1,8/7h[4:1],8-3-5-1-4-8[8:7],
{1},{4}1x/6x-8[8:1],
2,{8}4/1h[8:1],4,8,8,
2,5,{4}2,{8}3/4-7[8:1],3,{4}2,
8/3-1[8:1],7,{8}5/8h[8:1],5,1,1,
7,4,{4}7,{8}5/6-8[8:1],5,4,3,
{4}2-4[8:1],{8}8,1b-5[8:1],,3x,4,6xh[8:3],
{4},8h[4:1],2h[4:1],4,
{8}5h[2:1],{4},{8}8,{2}8w4[1:1],
{1},{8}B5,
{4},{8}E4,B3,{4},{8}B6,
,B3,{4}B2,B8,{8}E8,B7,
{4}B6,B6/B2,{8}E8/E4,B5,B7,E1/A8/A1/D1,
,,,E1,,A7,E7,B6,
{4},{8}B3,E3,,E6/B2,E1,E8,
{4},{8}E7,B8,,3x,{4}4x/2x-6[8:1],
7,7-3[8:1],2,1-5[8:1],
8,8-4[8:1],1,1-6[8:1],
8,8-3[8:1],1,{8}1,{16}4x,2x,
{4}4x-7[8:1],3,3-8[8:1],4,
5-1[8:1],4-2[8:1],5-8[8:1],4-1[8:1],
5-7[8:1],4-8[8:1],5-1b[8:1],4-8b[8:1]*-8>8[4:7],
{1},,{8}5b/1xh[4:1],
{4},{8}2/6,{2}6/2h[4:1],
{4}7h[8:1]/8h[8:1],1h[8:1]/2h[8:1],3h[8:1]/4h[8:1],6h[8:1]/5h[8:1],
{8}7h[4:1]/8h[4:1],{4},{8}1/6,{2}1h[4:5]/6h[2:1],
{4},,,5<8[8:1],
1b,{8}1>4[8:1],8,{4}8h[4:1],5-2[8:1],
1,1-5[8:1],3,3-7[8:1],
6b-1[8:1],{8}2,2b-4[8:1],,5w1b[8:1],{4},,,{8}6,
5,4,3,
{4}1/2h[4:1],1,{8}3/8h[4:1],3,{4}3,
{2}7b-2b[8:1]/4b-1b[8:1],6b-8b[8:1]/5b-3b[8:1],
{4}4/2b-6[8:1],4,{8}5/7-3[8:1],5,{4}5,
2h[8:1],1h[8:1],8h[8:1],7-5[8:1],
8x,{8}1,2x-4[8:1],,6,7,8x-4[8:1],
,2,1x,8-3[8:1],{4},{8}7,7,
{4}2/6-1[8:1],{8}3,3-8[8:1],,4,4,4b,
,6b,8b,2b,{2}4bw8b[8:1],
{4}6x/2xh[8:1],3/7h[8:1],8/4h[8:1],5/1h[8:1],
8/4h[8:1],8-4[8:1],3h[8:1],3-7[8:1],
6h[8:1],6-2[8:1],1h[8:1],1-5[8:1],
7h[8:1],8h[8:1],1h[8:1],2h[8:1],
{8}4h[8:1],5h[8:1],4h[8:1],6h[8:1],3h[8:1],4h[8:1],3h[8:1],7h[8:3],
,{16}B3,B4,B5,B6,B7,B8,{8}E2/D2,B2/A2,B7/A7,D7/E7,
{4}2x/5b,{8}4b/3x,5x/6b-1[16:3],,E2/D2/B1/B2/D3/E3/A2f,,A8/A7/D8/B7/B8/E8f/E7,
{2},Ch[2:1],
{8}6,6,5,5,4,4,3,3,
8/2,1,7,1,8/6,7,1,8,
1/2,3,8/7,6,1/2,3,8/7,6,
1b,2,3,4,8b,7,6,5,
3b/4b,2,1,1-4-6[4:1],,7,8,8<3[4:1],
,2,1,2h[8:3],{4},{8}3,4,
5,6,7,8-4[8:1],,3,2,1-5[8:1],
,5,7,8h[8:3],{4},{8}6,5,
7/4,6,3,5-1[8:1],,4,4,3-8[8:1],
,4,5,6b-1[8:1],{4},{8}2x,3,
8/4,6,5/1,3,8/5,6,4/1,3h[8:3],
,B4,C,B8,{32}2bx,3x,{16}4xh[16:3],{32}8bx,7x,{16}6xh[16:3],{8},Cf,
{1},,6/5,
{2}4/3,6/5,
5/2h[2:1],{4}3,{8}4,5,
{2}6<1[8:1],3>8[8:1],
6/5h[4:1],3/4h[4:1],
8-5[8:1],1-4[2:1],
{1}8-5[4:15],
{8},,,,,,,{16}B3,B2,
{1}E2,
E
&lv_5=14
&des_5=OrAngel
&inote_5=
(205){4},,,,{8}6,
4,7,1x<7[8:1],,5,6,8x>2[8:1],
,4,3,1x,8,{16}2x,3,{8}4h[8:1],5,
3,5,2,8x>2[8:1],,4,3,1x<7[8:1],
,5,6,8x,1,{16}7x,6,{8}5h[8:1],4,
5,3,7,{16}2,1,8h[16:3],{8},{16}7x,{8},6x,
{4}1/7h[8:1],8/2h[8:1],{8}8,2,6,4,
5/6<1[8:1],4,3,2x>5[8:1],,8,7,6x,
3/5,B3,B2,B1,,E6,B7,{32}1x/A8,2,3,4,
{1}Ch[1:3]/5>6v1[4:3],
{4},,,,,,,,,{8}3,
3,2/4,5,4,6pp8[8:1],
,,,3h[4:1],,4,5,6,
{4}7-5[8:1],{8}8-4[8:1],8,,5,6,7-3[8:1],
{2},{8}4/1,2,3/5,4,
{2}6/5-1[8:1],{8}8/7,6,5/3,4,
{4}1-3[8:1],{8}8,7-5[8:1],,4h[8:3],{4},{8}7h[4:1],
{4},{8}1/8,{2}8h[4:1]/1h[4:1],
{8}7x-5b[8:1]/8x-2[8:1],8x/7x,{4},{8}3x-1[8:1]/4x-6b[8:1],3x/4x,{4},8b/7b,
{8}2/8,7,6/1,8,7,8-2[8:1],
{4}7,{8}7,7-3[8:1],8,8,1,2,
4,3,4,3,1,2,8-4[8:1],3,
{4}8/2-6[8:1],2/7-4[8:1],{8}7/3,2,1,8,
{4}7>3[8:1],{8}7,6h[4:1],,4,5,3bx/4x,
,2bx/1x,8bx/7x,6x/5bx>8b[4:1],{2},{8}7,
8,7,8,6,1,6,1,
5,2,5,2,4,3,4,3,
6,5,6,5,7,4,7,4,
8,3,8,3,1,2,1,2,
3b/4b,4,3,4,2,1,2,1,
3,8,3,8,4,7,5,6,
4,5,2,7,4,5,3,6,
4,5,2,7,3,6,{16}1,8,1,8,
{4}1-4[8:1],{8}1/8,7,3/8,2,7/1,6h[8:3],
{4}5,{8}5,4,3/4,3,6/5,6,
7-4[8:1],8,2-5[8:1],1,8,8,7,7h[8:3],
{4}8,{8}8,7/8,6x,5,4,3,
{4}2<7[8:1],2,{8}3x,4,5,6,
{4}7>2[8:1],{8}7,3>8[8:1],,3,{4},{8}7h[4:1]/8h[4:1],
{4},{8}8/1,1/8h[8:1],1,1/8,8,
{1}2x-4-8-6[2:1]/3x-1-5-7[2:1],
{4}8<4[4:1],{8}1,1,2,2,3h[8:1],1-5[8:1],
,1,3,2/4<7[8:1],,3,4,5,
{4}6-3[8:1],{8}8,8,,1-6[8:1],2,1-4[8:1],
,1,6x,5,4/6,3,2-4[8:1],1,
{4}2/8-4[8:1],{8}2,1>4[4:1],,1/4pp6[4:1],5,7h[8:3],
{4},{8}5,5,{4}4h[4:1],2,
1-5[8:1],{8}1,8,{4}8<2b[1:1],B6,
,B1,,B3,
{8}3,4,5,6h[4:1],,5,4,3h[4:1],
,4,5,6<1[8:1],{4},{8}2,3,
{4}2h[4:1],1>4[8:1],{8}5,6,7,8h[8:3],
,,,8h[2:1],,1,2,3h[2:1],
{4},{8}4,6h[4:1],,7,8,2h[2:1],
{4},{8}4,7h[4:1],,5,3/4,1,
8/7-5[8:1],1,7/2-5[8:1],3,{4}2/4-7[8:1],4/3-1[8:1],
3/6-1[8:1],6/5-2[8:1],5/8-4[8:1],8/1-6[8:1],
1b/5,5/7-3[8:1],7b/8,{8}1>3[8:1],{16}5,6,
{4}1b/7-4[8:1],7b/5-1[8:1],5b/6-2[8:1],6b/3,
{8}8x/1x,1/8,{16}2xh[8:1]/7xh[8:1],{8},{16}3/6,{8}5bx/4bx,4/5,{16}3xh[8:1]/6xh[8:1],{8},{16}2/7,
8bxh[8:1]/1bxh[8:1],{8},{16}7/2,3bxh[8:1]/6bxh[8:1],{8},{16}7/4,{8}8bx/5bx,{16}3xh/6xh,5/2,{4}1bxp4>8[8:13]/4bx>2-7<4b[8:13],
{1}1b/4b,
{4},,,{16}D8,D7,D6,D5,
{4}1x/3xh[4:1],{8}1,5/8,5/8,1,{4}2b>5[4:1],
{8}2/5-1[4:1],7,{4}1<6[4:1],6-2[4:1],2-4-8[8:3],
{8}4,{4},{8}7,{2}7-1-3-5-7>7[1:1],
{4},,,{16}8x,1,2,3,
{4}4bh[4:1]/1-5[8:1],{8}1,6,{4}6-8[8:1],{16}5x/6,4,3,2,
{4}1-5[8:1],1/7-3[8:1],7/2-5[8:1],2/8-5[8:1],
8b/1,{8}2,{32}1b/8h[8:1],B1,C,B5,{8}A5,{32}8b/2>8q1[8:5],B8,C,B4,{8}A4,2x/1x,
{2},{8}6,7,8,1,
{4}8-5[8:1],{8}3,4,4h[4:1],{4},{16}6/3,7/2,
{4}1b/8-6[8:1],8b/1-5[8:1],1b/8-5[8:1],8b/1-4[8:1],
{8}1b/8h[1:1],{4},{32}A5,A6,E8,E2,{2}3x<2q1[1:1],
{4},,,{8}8,7,
3/6,5,3/6,4h[4:1],,2,1,8<5[4:1],
,8-4[4:1],1,8,{4},{8}5/6,4,
{4}2/3h[4:1],{8}1,1/8h[4:1],,6-1[8:1],5,6b/5,
,2x/8bx,7bx/8x,6bx/4x,{4}2bx/5x,{16}D3,A3,D4,A4,
{8}5x/6,7,4/3,2,5/6,8,4/3,1,
8,6,4,2,7,1,3,5,
8/7,6,4/5,3,2/1,3,4/5,6,
7x/8x,6/1,2/5,4/3,2x/1x,3/8,7/4,5/6,
4b,7h[8:1],5,7h[8:1],6,7h[8:1],8,7h[8:3],
,{16}1,2,3,4,6,5,{8}4/3,2,8/1-5[8:1],7,
{4}1b/6bx-2[8:1],{8}6b/4bx,3bx-8[8:1],,3b/7bx<4b[8:1],,{64}7b/A8,D1,A1,D2,A2,D3,{32}A3f,
{2},{8}4,3,2,1,
8/7,6,1/2,3,8/7,5,1/2,4,
7/1>4[8:1],8,1/6-2[8:1],7,6/5-1[8:1],4,5/8<5[8:1],7,
8/2-7[8:1],1,2/4-8[8:1],5,4/1-6[8:1],2,1/7-4[8:1],8,
7/5-2[8:1],5,6-1[8:1],6,5-2[8:1],5,6,7,
8bx/3x,2,6/1>5[8:1],8b,,6,7,8b-6[8:1],
,3,2,1b-3[8:1],{4},{8}8,7,
4/6h[8:1],3,5/3h[8:1],6b-1[8:1],,4,3,2b<7[8:1],
,3,4,5b-8[8:1],{4},{8}4,3,
7/2,8/1,7/5,6/4b-8[8:1],,4/3,2,1b-5[8:1],
,5/1,7,1b-6b[8:1]*-4b[8:1],{4},Cf,
{16}5x,7,5,7,4x,6,4,6,3x,5,3,5,{8}2h[8:1],1b,
,{16}7,5,6,2,4,3,8,5,6,1,4,3,{8}Cf/8bw4b[8:15],
{1},,,,{8}B6,
{4},{16}B2,B3,B4,{8},{16}E6,{8},E4,
{4}E7/E5,A6/E6/E3/A2,E7/D7/B3/A3/D4/A7,B7/A7/B2/A2/E2/D2/E7/D7/E3/A6,
{8}E6,B5,B4,E4,,B3,B2,E2,
{2}E8/A7/D8/B7,{4}3,4,
{1}5h[8:15]/2-6-1-4-8-2[4:15],
{16},,,,,,,,,,,,,,,6,
{1}7xh[1:2],
E
