&title=Peer
&artist=tripleS
&des=Kuronitz
&first=-0.03
&des_5=Kuronitz
&lv_5=12
&inote_5=(88){4},{16},,,,6b,5,4,3h[8:1],,,6,5,
4,3,4,5,{4}6h[8:1],{16}7h[8:1],,,6,5,4,{8}6h[8:1],
{16},5,4,3,3,4,5,6V41[16:3],{2}6xh[16:3],
1p1[8:1],7V51[8:1],
{64}2-6[8:1]*<3[4:1],{4},,{16},,{64}3h[16:5],,,,,,5,,,,,,5,,,,,,,,5,,,,,,,,6,
,,,,,,,5x,,5x,,6,,,,5,,,,6xh[64:31],,,,,,,{8}B5,B4,B3,B2,
{64},,,,,E8,,,,E4,,,,,,,E6,,,,,E2,,,,C,,,,E6,,,,,,,,,,,,6h[16:5],,,,,,4,,,,,,4,,,,,,,,4,,,,,,,,3,
,,,,,,,4x,,4x,,3,,,,4,,,,3xh[64:31],,,,,,,,4b<2p4b[64:41],{4},,{16},{32}E8,
,,,,C,,,,,E4,,,,4>1[32:5],,,,3,,,,,,D3,,,,,,5<8[32:5],
,,,6,,,,,,D7,,,,,,1x,,1,,1x/6,,1,,1,,1x/4,,1,,1,
,1x/7,,1,,1,,1x/3,,1,,1,,1bx>6b[32:13],,,,,,,,,,,,,{16}A3,{32},D5,,,,7bxh[64:55],
,,,,,,{16}E5,B3,{32},,,,,,,E2,,C,,E6,,,,,,,,,,Ch[8:3],
,,,,,,,,,,,,,,,,,,,E8,,C,,E2,,E1,,B8/B1/C/B5/B4/B7/B6/B2/B3,,,{16}E6,
C,E4,E5,{32}B5/B4/C/B8/B1/B6/B7/B3/B2,,,C,,,(176){16},,,{8}7-5[16:1],,,4-2[16:1],
,,1-7[16:1],,,{4}3-5[16:1],
{8},6-2[8:1]/2-6[8:1],{16},,,,,,,5,6,5,{48},,{12}1b,
{48},,,{16}4,5,4,{48},,{24}8b,{48},,,,,{16}3,4,3,{48},,7b,,,,,,,4,,,{16}5,4,
{48},,{24}8b-5b[8:1],,,,,,,,,{12}1b,{48},,,,,,,,,{16}1,2,1,{48},,{12}5b,
{48},,,{16}8,1,8,{48},,{24}4b,{48},,,,,{16}7,8,7,{48},,3b,,,,,,,8,,,{16}1,8,
{48},,{24}4b-1b[8:1],,,,,,,,,{12}5b,{48},,,,,,,,,{16}7<3<7[1:1],{1},{4},{16},,{24},7-3[12:1],
,,4,,,{12}2-6[8:1],{24},5,,,,,,,,,{12}2>6>2[12:7],
,,,,,,,,,,,2-6[12:1],
{24},5,,,7-3[8:1],,,4,,,,,,,,,6-8[24:1],,,5,,,{12}6b,
{24},5-7[24:1],,,4,,,5b,,,{12}4-6[24:1],{24},3,,,4b,,,3-5[24:1],,,{12}2,
{24},3b,,,2-4[24:1],,,1,,,{12}2b,{24},,,,7-5[24:1],,,8,,,{12}7b,
{24},8-6[24:1],,,1,,,8b,,,{12}1-7[24:1],{24},2,,,1b,,,2-8[24:1],,,{12}3,
{24},2b,,,3-1[24:1],,,4,{48},,,,3b,8<3[16:25],,,,,,,,,,,,{16}1,,1,,1,
,1,,1,,1,,1,,1,,1,,1,,1,
,1,,1,,1w5[8:1],,1,
E
