&title=Melodiniq
&artist=onoken a.k.a. owl*tree
&first=0.06
&des_6=zephyr a.k.a. yuki*04
&des_7=zephyr a.k.a. yuki*04
&lv_6=15+
&lv_7=[雷]
&des=zephyr a.k.a. yuki*04
&clock_count=4
&inote_6=(193){1},
{12}3h[3:1]/A8,E8,E7,A6,,,
{12}4h[3:1]/A1,B1,C,B5,,,
{12}5h[3:1]/A2,E3,E4,A4,,,
{12}6h[3:1]/E5,E6,E7,E8,,,
{12}6h[3:1]/A1,E2,E3,A3,,,
{12}5h[3:1]/A8,B8,C,B4,,,
{12}4h[3:1]/A7,E7,E6,A5,,,
{12}3h[3:1]/E5,E4,E3,E2,,,
{12}3,4,2,2,5,4,6,5,7,7,1,8,
{12}2,2,4,3,5,4,6,5,7,7,4,5,
{12}3,4,2,2,5,4,6,5,7,7,1,8,
{12}2,2,4,3,5,4,6,5,7,7,3,5,
{1}2xp8<4[4:10]`6xp4>8[4:10]b,,,4qq2>6[4:10]b`8qq6<2[4:10],,,
{1}2<2[4:6]`6>6b[4:6],,
{16}2h[2:1]/4,,,,3,,,,5,,,,6,,6,,,,5/7,,5/7-4[8:1],,,,3,,3,,2,,2,,
{16}3,4,3,,5h[4:1],,,,3-1[8:1],,,,4,,4,,
{16}8x,,1/7h[4:1],,,,5,,5,,,,4/6,,5,,
{16}7h[2:1]/5,,,,6,,,,4,,,,3,,3,,,,4/2,,4/2-5[8:1],,,,6,,6,,7,,7,,
{24}5x,6,7,8,1,2,{16}3,4,5,6,{12}7,8,1,{8}2,3,{6}4,5,6,{4}7,8,
{16}1b-3[8:1]/5b,,4,,1,,6,,5/7,,8,,5/7,,4,,
{16}3,4,3,,2/5,,3,,6,5,7,,1h[8:1],,8,,
{16}2,,3,4,3,,4/5,,6,,7<5[8:1],,8,,1,,
{16}2,3,4,5,6,7,8,1,2/8,7,6,5,4,3,2,1,
{16}8b-6[8:1]/4b,,5,,8,,3,,4/2,,1,,4/2,,5,,
{16}6,5,6,,7/4,,6,,3,4,2,,8h[8:1],,1,,
{16}7,,6,5,6,,5/4,,3,,2>4[8:1],,1,,8,,
{16}7,6,5,4,3,2,1,8,7/4,3,2,1,8,7,6,5,
{16}4/7-4[8:1],,,,3-1[8:1]/7,,,,3/5-8[8:1],,,,2-6[8:1]/5,,,,
{16}1-4[8:1]/2,,,,1/7-3[8:1],,,,3/7,,,,1b,1,,,
{16}5/2-5[8:1],,,,6-8[8:1]/2,,,,6/4-1[8:1],,,,7-3[8:1]/4,,,,
{16}8-5[8:1]/7,,,,8/2-6[8:1],,,,6/2,,,,8b,,,,
{12}5,7,3,5,1,1,4,2,6,4,7,5,
{12}6,2,4,3,6,5,8,1,4,2,7,1,
{16}6,5,6,5,7,4,7,4,8,3,8,3,1,2,1,2,
{32}8,7,6,5,4,3,2,1,8,7,6,5,4,3,2,1,
{32}8/3,4,5,6,7,8,1,2,3,4,5,6,7,8,1,2,
{1}3b-6[4:13]/7b,,,,
{8}3,5,4,6,E3,E8,E2,E7,,2,2,7,7,1,8,1,
{8},7,7,5,5,6,6,4,
{32}4,3,2,1,{24}8,7,6,{16}5,4,3,2,{12}1,8,7,
{8}6,5,
{4}4h[2:1],,{8}5h[8:3],,,3<6[2:1],
{8},,,7,7-4[2:1],8,8,1,,1,,,3,4,2,2>4[8:1],,2,,5h[4:1],,4,6,3,
{4}5h[2:1],,{8}4h[8:3],,,6>3[2:1],
{8},,,2,2-5[2:1],1,1,8,,8h[8:1],,,6,5,7,
{8}7<5[8:1],,7,4,4h[4:1],,5,3,6,
{8}4,4,3/5,3/5,{16}2,4,3,,6,4,5,,
{8}3b,1,2,3/8,5,4,3/6,8,
{16}1/7,,6,5,6,,4,,3,5,3,,2/4,,1,,
{16}7,8,7,,1,,{24}1,2,3,{12}4,{24}6,5,6,5,
{8}7,1/8,
{8}2,2,2/4,2,2/8,2,2-6[8:13]/5,2,
{16}2,5,2,6,2,7,2,8,2,1,2,3,2,4,2,5,
{1}2b-6b[8:1],
(196)
{16}4/7,,3,,2/5,,1,,{24}6-1[8:1],8,7,1,,,2b/6b,,,3,,,
{12}4,4,4,5,5,5,7,8,1/6,2,1,3/8,
{8}4,5,{24}7b,5,6,5,6,,2b,4,3,4,3,,{16}4/5,,6,5,
{12}7,1,1,8,2,2,{16}8,7,6,5,{4}3/4<8[8:1],
{16}2-6[8:1]/4b,,,,1/2,,,,{12}8,7,6,4,3,2,
{16}5-3[8:1],1,5,1,5-1[8:1],,,,5/7-5[8:1],,,,2/7,,,,
{16}1,,1,,{32}7b,6,5,4,1b,2,3,4,
{16}8,,8,,{32}2b,3,4,5,8b,7,6,5,
{16}3,4,3,,2,1,2,,3/8,,{24}8,7,6,{16}5,,3/4,,
{16}5/2,,6,,7/4,,8,,{24}3-8[8:1],1,2,8,,,7b/3b,,,6,,,
{12}5,5,5,4,4,4,2,1,8/3,7,8,6/1,
{8}5,4,{24}2b,4,3,4,3,,7b,5,6,5,6,,{16}5/4,,3,4,
{12}2,8,8,1,7,7,{16}1,2,3,4,{4}6/5>1[8:1],
{16}7-3[8:1]/5b,,,,8/7,,,,{12}1,2,3,5,6,7,
{16}4-6[8:1],8,4,8,4-8[8:1],,,,4/2-5[8:1],,,,7/2,,,,
{16}8,,8,,{32}2b,3,4,5,8b,7,6,5,
{16}1,,1,,{32}7b,6,5,4,1b,2,3,4,
{16}6,5,7,7,3,4,2,2,{32}1/8,7,6,5,4,3,2,1,{4}8b/4b,
(206)
{16}3,4,2,8,4,5,1,7,5,6,1,8,4,6,1,7,
{24}2b,3,4,5,6,7,8,1,2,3,4,5,{16}6/8,7,6,5,4/2,,,,
{16}2b,3,4,5,2b,3,4,5,{32}2b,3,4,5,6,7,8,1,2b/6b,,,,,,,,
{16}7b,6,5,4,7b,6,5,4,{32}7b,6,5,4,3,2,1,8,7b/3b,,,,,,,,
(209)
{16}6,5,6,4,5,4,6,5,6,3,4,3,{12}7h[12:1],8h[12:1],6,
{12}4h[12:1],5h[12:1],3,{16}1,2,8,3,7,4,3,2,1,7,6,5,
{32}4/1b,8,7,6,5,4,3,2,{8}1/6,6,{32}6b,5,4,3,2,1,8,7,{8}6/3,4,
{16}6,5,6,,4/7,,8,,1/2-6b[8:1],,3,4,2b,,8,,
(212)
{16}5>2[8:1]/7,,6,,{32}5/6,E6,B5,B4,E4,,,,
{16}1/7-4b[8:1],,,,3/7,,,,
{16}4<7[8:1]/2,,3,,{32}4/3,E4,B4,B5,E6,,,,
{16}8/2-5b[8:1],,,,6/2,,,,
(215)
{24}6,5,6,5,,,7/8,,,1,,,3,4,3,4,,,2/1,,,8,,,
{32}2h[384:1]/8b,3,4,5,6,7,8,1,2/7b,3,4,5,6,7,8,1,
{32}2/6b,3,4,5,6,7,8,1,{4}2/5b,
(218)
{16}3,4,3,4,2,5,2,5,1,6,1,6,8,7,8,7,
{16}5,6,5,6,4,7,4,7,3,8,3,8,2,1,2,1,
(221)
{16}2,3,4,5,8,7,6,5,1,2,3,4,7,6,5,4,
{16}1,2,3,4,5/8,7,6,5,3,3,4,4,2,,1,,
(224)
{16}2-6[8:1]/4,,6>5-3b[8:1],,2,,7/A6f,,A3h[8:1]/B8,,,,1b,,,,
{16}7-3[8:1]/5,,3<4-6b[8:1],,7,,2/A3f,,A6h[8:1]/B1,,,,8b,,,,
(227)
{16}2,1,3,8,4,7,5,6,8,7,1,6,2,5,3,4,
{16}2,1,3,8,4,7,5,6,5,6,4,7,3h[16:1],8h[16:1],2h[16:1],1h[16:1],
(230)
{32}2,3,4,5,6,7,8,1,2,3,4,5,6,7,8,1,2,3,4,5,6,7,8,1,
{4}2-6b[8:1]/6,
{8}7,7,7/5,5,5/4,4,4/2,2,
{1}2>1[2:3]/8<1b[2:3]/Cf/B1/B2/B3/B4/B5/B6/B7/B8,,
(236)
{8}3bh[7:1]/7b,,1h[7:1]/5,,
{8}2h[7:1]/6,5,8h[7:1]/4,,
{8}5bh[8:1]/1b,1,6/2h[8:1],6,
{8}7h[8:1]/3,3,8/4h[8:1],8,
{16}D8,E7,D6/2,E5,D4/2,,1,,1,,2-6[8:1]/4,,3/5,,6bx,,
{8},{16}7,8,7,,1,,6,,2,,5,,3,,
{8}6bh[7:1]/2b,,8h[7:1]/4,,
{8}7h[7:1]/3,4,1h[7:1]/5,,
{8}4bh[8:1]/8b,8,3/7h[8:1],3,
{8}2h[8:1]/6,6,1/5h[8:1],1,
{16}D2,E3,D4/7,E5,D6/7,,8,,
{16}8,,7-3[8:1]/5,,6/4,,3bx-1v7-5b[8:3],,
{8},,,,4h[4:1],,,,
{4}3>5[2:1],3,{8}E4/E5,,,7,
{8},4/6,4/6-1[8:1],,1-5b[8:1],,5-3[8:1]*-3[8:1],,
{8}2h[8:1],,1h[8:1],,2/4,3/5,4/6,5/7,
{8}8>3[8:1],8<5[8:1],8-4b[8:1],,,,,,
{16}Ch[384:1],,3,,2/4,,,,3,4,3,,2/5,,3,,
{8}2/4h[8:1],2,3/5h[8:1],3,4/6h[8:1],4,5/7h[8:1],5,
{32}E5f,B4f,B3f,E3f,A2f,,,,{8}8,8,1/7,1/7,2/6,2/6,
{16}2,6,2,6,3,5,3,5,4,4,4,4,4,4,4,4,
(240)
{16}4w8b[8:1],,,,A4f,,,,2x/6x,,,,2,3,4,5,
{16}7,6,7x,,1/8,,2,,3/4-8[8:1],,,,2/4,,1,,
{16}1V35[8:1],,7,,1/8,,7,,6<1[8:1],,,,4-8[8:1]/6,,,,
{16}7h[8:1],,,,1,2,3,4,5/8h[4:1],,,,{32}4,3,2,1,8,7,6,5,
{16}4/7-4[8:1],,,,1b,,,,
{24}1x`D2,2`D3,3`D4,4`D5,,,{16}8-4[8:1],,7x/5x,,
{16}8b>3[8:1],,,,6/8,,7,,4/6,,3,,2/6<1[8:1],,1,,
{32}2,3,4,5,,2,3,4,{8}5b>2[8:1],,{32}1,8,7,6,,1,8,7,{8}6b,,
{16}4/8,,7,5,6,,3/4,,2,,1/7,,2/6,,,,
{24}3,4,3,4,3,4,
{8}2v5[8:1],5V38[8:1],2,6,7,,
{16}1/7,,6,5,6-3[8:1],,4-8[8:1],,6,,4,,{4}7,
{16}2/8,,{32}2b,3,4,5,6,,,,7b/8b,,,,
{32}7b,6,5,4,3,,,,{16}2b/1b,,,,
{24}2,1,2,1,,,{8}3/8p4[8:1],4pp6[8:1],8,2,2-6-1[4:1],5x,
{8}2,4,4-8[8:1],2,4,1,7,,
{12}4h[384:1],6,2h[384:1],4,1h[384:1],7,
{12}5h[384:1],7,3h[384:1],5,1h[384:1],5,
{32}1b,8,7,6,4h[8:1],,,,,,,,8b,7,6,5,
{32}3h[8:1],,,,,,,,7b,6,5,4,2h[8:1],,,,
{16}3,,1,,{24}7,8,7,8,,,{16}1/6,,5,,{24}2b,3,4,5,,,
{24}7b,6,5,4,,,{16}3,4,3,,2/5,,1,,7/8,,6,5,
{16}6,,3,4,2,,1/5,,
{32}1bx/5bx,2/6,3/7,4/8,,,,,{16}7,5,6,4,
{16}5h[8:1],,3,,2/4,,1,,
{24}7/8,6,5,4,,,1/2,3,4,5,,,
{24}7/8,6,5,4,,,1/2,3,4,5,,,
{24}7/8,6,5,4,3,2,1/3,4,5,6,7,8,
{24}1/6,5,4,3,2,1,8/4,5,6,7,8,1,
{24}2/7,3,4,5,6,7,8/5,4,3,2,1,8,
{16}7/3b,3,4,2,6b,6,5,7,1b,1,2,3,8b,8,7,6,
{32}4,5,4,5,4,5,4,5,3,6,3,6,3,6,3,6,
{32}2,7,2,7,2,7,2,7,2bh[384:1],3,4,5,6,7,8,1,
{32}2bh[384:1],3,4,5,6,7,8,1,2/8,3/7,4,5,6,7,8,1,
{32}2/5,3/6,4,5,6,7,8,1,2v7[8:1]/6v3[8:1],5,4,3,2,1,8,7,
{1}6b/2b>2>4[120#4:5]/Cf,,,
{8}6h[4:3],,,,,,5h[4:3],,,,,,4h[4:3],,,,,,
{4}A2h[8:10]/D3h[8:11]/E3h[8:12]/B2h[8:13]/E2h[8:15]/D2h[8:17],
{2},,{8}E4,E5,E6,E7,
{8}E8,,,B8h[8:2]/B7h[8:4]/E8h[8:6]/A8h[8:7]/D8h[8:9]/A7h[8:11],,B2,E3,B3,,
{8}E4,B4,,E5,,A5,,,,E4h[4:12]/E6h[4:12],,,,,,{1},,
{4},E5,,,{1},
E
&inote_7=(193){1},
{12}3h[3:1]/A8,E8,E7,A6,,,
{12}4h[3:1]/A1,B1,C,B5,,,
{12}5h[3:1]/A2,E3,E4,A4,,,
{12}6h[3:1]/E5,E6,E7,E8,,,
{12}6h[3:1]/A1,E2,E3,A3,,,
{12}5h[3:1]/A8,B8,C,B4,,,
{12}4h[3:1]/A7,E7,E6,A5,,,
{12}3h[3:1]/E5,E4,E3,E2,,,
{12}3,4,2,2,5,4,6,5,7,7,1,8,
{12}2,2,4,3,5,4,6,5,7,7,4,5,
{12}3,4,2,2,5,4,6,5,7,7,1,8,
{12}2,2,4,3,5,4,6,5,7,7,3,5,
{1}2xp8<4[4:10]`6xp4>8[4:10]b,,,4qq2>6[4:10]b`8qq6<2[4:10],,,
{1}2<2[4:6]`6>6b[4:6],,
{16}2h[2:1]/4,,,,3,,,,5,,,,6,,6,,,,5/7,,5/7-4[8:1],,,,3,,3,,2,,2,,
{16}3,4,3,,5h[4:1],,,,3-1[8:1],,,,4,,4,,
{16}8x,,1/7h[4:1],,,,5,,5,,,,4/6,,5,,
{16}7h[2:1]/5,,,,6,,,,4,,,,3,,3,,,,4/2,,4/2-5[8:1],,,,6,,6,,7,,7,,
{24}5x,6,7,8,1,2,{16}3,4,5,6,{12}7,8,1,{8}2,3,{6}4,5,6,{4}7,8,
{16}1b-3[8:1]/5b,,4,,1,,6,,5/7,,8,,5/7,,4,,
{16}3,4,3,,2/5,,3,,6,5,7,,1h[8:1],,8,,
{16}2,,3,4,3,,4/5,,6,,7<5[8:1],,8,,1,,
{16}2,3,4,5,6,7,8,1,2/8,7,6,5,4,3,2,1,
{16}8b-6[8:1]/4b,,5,,8,,3,,4/2,,1,,4/2,,5,,
{16}6,5,6,,7/4,,6,,3,4,2,,8h[8:1],,1,,
{16}7,,6,5,6,,5/4,,3,,2>4[8:1],,1,,8,,
{16}7,6,5,4,3,2,1,8,7/4,3,2,1,8,7,6,5,
{16}4/7-4[8:1],,,,3-1[8:1]/7,,,,3/5-8[8:1],,,,2-6[8:1]/5,,,,
{16}1-4[8:1]/2,,,,1/7-3[8:1],,,,3/7,,,,1b,1,,,
{16}5/2-5[8:1],,,,6-8[8:1]/2,,,,6/4-1[8:1],,,,7-3[8:1]/4,,,,
{16}8-5[8:1]/7,,,,8/2-6[8:1],,,,6/2,,,,8b,,,,
{12}5,7,3,5,1,1,4,2,6,4,7,5,
{12}6,2,4,3,6,5,8,1,4,2,7,1,
{16}6,5,6,5,7,4,7,4,8,3,8,3,1,2,1,2,
{32}8,7,6,5,4,3,2,1,8,7,6,5,4,3,2,1,
{32}8/3,4,5,6,7,8,1,2,3,4,5,6,7,8,1,2,
{1}3b-6[4:13]/7b,,,,
{8}3m,5m,4m,6m,E3m,E8m,E2m,E7m,,2m,2m,7m,7m,1m,8m,1m,
{8},7m,7m,5m,5m,6m,6m,4m,
{32}4m,3m,2m,1m,{24}8m,7m,6m,{16}5m,4m,3m,2m,{12}1m,8m,7m,
{8}6m,5m,
{4}4h[2:1],,{8}5h[8:3],,,3<6[2:1],
{8},,,7,7-4[2:1],8,8,1,,1,,,3,4,2,2>4[8:1],,2,,5h[4:1],,4,6,3,
{4}5h[2:1],,{8}4h[8:3],,,6>3[2:1],
{8},,,2,2-5[2:1],1,1,8,,8h[8:1],,,6,5,7,
{8}7<5[8:1],,7,4,4h[4:1],,5,3,6,
{8}4,4,3/5,3/5,{16}2,4,3,,6,4,5,,
{8}3b,1,2,3/8,5,4,3/6,8,
{16}1/7,,6,5,6,,4,,3,5,3,,2/4,,1,,
{16}7,8,7,,1,,{24}1,2,3,{12}4,{24}6,5,6,5,
{8}7,1/8,
{8}2,2,2/4,2,2/8,2,2-6[8:13]/5,2,
{16}2,5,2,6,2,7,2,8,2,1,2,3,2,4,2,5,
{1}2b-6b[8:1],
(196)
{16}4/7,,3,,2/5,,1,,{24}6-1[8:1],8,7,1,,,2b/6b,,,3,,,
{12}4,4,4,5,5,5,7,8,1/6,2,1,3/8,
{8}4,5,{24}7b,5,6,5,6,,2b,4,3,4,3,,{16}4/5,,6,5,
{12}7,1,1,8,2,2,{16}8,7,6,5,{4}3/4<8[8:1],
{16}2-6[8:1]/4b,,,,1/2,,,,{12}8,7,6,4,3,2,
{16}5-3[8:1],1,5,1,5-1[8:1],,,,5/7-5[8:1],,,,2/7,,,,
{16}1,,1,,{32}7b,6,5,4,1b,2,3,4,
{16}8,,8,,{32}2b,3,4,5,8b,7,6,5,
{16}3,4,3,,2,1,2,,3/8,,{24}8,7,6,{16}5,,3/4,,
{16}5/2,,6,,7/4,,8,,{24}3-8[8:1],1,2,8,,,7b/3b,,,6,,,
{12}5,5,5,4,4,4,2,1,8/3,7,8,6/1,
{8}5,4,{24}2b,4,3,4,3,,7b,5,6,5,6,,{16}5/4,,3,4,
{12}2,8,8,1,7,7,{16}1,2,3,4,{4}6/5>1[8:1],
{16}7-3[8:1]/5b,,,,8/7,,,,{12}1,2,3,5,6,7,
{16}4-6[8:1],8,4,8,4-8[8:1],,,,4/2-5[8:1],,,,7/2,,,,
{16}8,,8,,{32}2b,3,4,5,8b,7,6,5,
{16}1,,1,,{32}7b,6,5,4,1b,2,3,4,
{16}6,5,7,7,3,4,2,2,{32}1/8,7,6,5,4,3,2,1,{4}8b/4b,
(206)
{16}3,4,2,8,4,5,1,7,5,6,1,8,4,6,1,7,
{24}2b,3,4,5,6,7,8,1,2,3,4,5,{16}6/8,7,6,5,4/2,,,,
{16}2b,3,4,5,2b,3,4,5,{32}2b,3,4,5,6,7,8,1,2b/6b,,,,,,,,
{16}7b,6,5,4,7b,6,5,4,{32}7b,6,5,4,3,2,1,8,7b/3b,,,,,,,,
(209)
{16}6,5,6,4,5,4,6,5,6,3,4,3,{12}7h[12:1],8h[12:1],6,
{12}4h[12:1],5h[12:1],3,{16}1,2,8,3,7,4,3,2,1,7,6,5,
{32}4/1b,8,7,6,5,4,3,2,{8}1/6,6,{32}6b,5,4,3,2,1,8,7,{8}6/3,4,
{16}6,5,6,,4/7,,8,,1/2-6b[8:1],,3,4,2b,,8,,
(212)
{16}5>2[8:1]/7,,6,,{32}5/6,E6,B5,B4,E4,,,,
{16}1/7-4b[8:1],,,,3/7,,,,
{16}4<7[8:1]/2,,3,,{32}4/3,E4,B4,B5,E6,,,,
{16}8/2-5b[8:1],,,,6/2,,,,
(215)
{24}6,5,6,5,,,7/8,,,1,,,3,4,3,4,,,2/1,,,8,,,
{32}2h[384:1]/8b,3,4,5,6,7,8,1,2/7b,3,4,5,6,7,8,1,
{32}2/6b,3,4,5,6,7,8,1,{4}2/5b,
(218)
{16}3,4,3,4,2,5,2,5,1,6,1,6,8,7,8,7,
{16}5,6,5,6,4,7,4,7,3,8,3,8,2,1,2,1,
(221)
{16}2,3,4,5,8,7,6,5,1,2,3,4,7,6,5,4,
{16}1,2,3,4,5/8,7,6,5,3,3,4,4,2,,1,,
(224)
{16}2-6[8:1]/4,,6>5-3b[8:1],,2,,7/A6f,,A3h[8:1]/B8,,,,1b,,,,
{16}7-3[8:1]/5,,3<4-6b[8:1],,7,,2/A3f,,A6h[8:1]/B1,,,,8b,,,,
(227)
{16}2,1,3,8,4,7,5,6,8,7,1,6,2,5,3,4,
{16}2,1,3,8,4,7,5,6,5,6,4,7,3h[16:1],8h[16:1],2h[16:1],1h[16:1],
(230)
{32}2,3,4,5,6,7,8,1,2,3,4,5,6,7,8,1,2,3,4,5,6,7,8,1,
{4}2-6b[8:1]/6,
{8}7,7,7/5,5,5/4,4,4/2,2,
{1}2>1[2:3]/8<1b[2:3]/Cfm/B1h[32:48]m/B2h[32:49]m/B3h[32:50]m/B4h[32:51]m/B5h[32:52]m/B6h[32:53]m/B7h[32:54]m/B8h[32:55]m,,
(236)
{8}3bh[7:1]/7b/4h[7:1]m/2h[7:1]m,,1h[7:1]/5/2h[7:1]m/8h[7:1]m,,
{8}2h[7:1]/6/1h[7:1]m/3h[7:1]m,5,8h[7:1]/4/1h[7:1]m/7h[7:1]m,,
{8}5bh[8:1]/1b/3m/7m,1`3m/7m,6/2h[8:1]/4m/8m,6`4m/8m,
{8}7h[8:1]/3/1m/5m,3`1m/5m,8/4h[8:1]/2m/6m,8`2m/6m,
{16}D8,E7,D6/2,E5,D4/2,,1,,1,,2-6[8:1]/4,,3/5,,6bx,,
{8},{16}7,8,7,,1,,6,,2,,5,,3,,
{8}6bh[7:1]/2b/5h[7:1]m/7h[7:1]m,,8h[7:1]/4/7h[7:1]m/1h[7:1]m,,
{8}7h[7:1]/3/8h[7:1]m/6h[7:1]m,4,1h[7:1]/5/8h[7:1]m/2h[7:1]m,,
{8}4bh[8:1]/8b/6m/2m,8`6m/2m,3/7h[8:1]/5m/1m,3`5m/1m,
{8}2h[8:1]/6/8m/4m,6`8m/4m,1/5h[8:1]/7m/3m,1`7m/3m,
{16}D2,E3,D4/7,E5,D6/7,,8,,
{16}8,,7-3[8:1]/5,,6/4,,3bx-1v7-5b[8:3],,
{8},,,,4h[4:1],,,,
{4}3>5[2:1],3,{8}E4/E5,,,7,
{8},4/6,4/6-1[8:1],,1-5b[8:1],,5-3[8:1]*-3[8:1],,
{8}2h[8:1],,1h[8:1],,2/4,3/5,4/6,5/7,
{8}8>3[8:1],8<5[8:1],8-4b[8:1],,,,,,
{16}Ch[384:1],,3,,2/4,,,,3,4,3,,2/5,,3,,
{8}2/4h[8:1],2,3/5h[8:1],3,4/6h[8:1],4,5/7h[8:1],5,
{32}E5f,B4f,B3f,E3f,A2f,,,,{8}8,8,1/7,1/7,2/6,2/6,
{16}2,6,2,6,3,5,3,5,4,4,4,4,4,4,4,4,
(240)
{16}4w8b[8:1],,,,A4f,,,,2x/6x,,,,2,3,4,5,
{16}7,6,7x,,1/8,,2,,3/4-8[8:1],,,,2/4,,1,,
{16}1V35[8:1],,7,,1/8,,7,,6<1[8:1],,,,4-8[8:1]/6,,,,
{16}7h[8:1],,,,1,2,3,4,5/8h[4:1],,,,{32}4,3,2,1,8,7,6,5,
{16}4/7-4[8:1],,,,1b,,,,
{24}1x`D2,2`D3,3`D4,4`D5,,,{16}8-4[8:1],,7x/5x,,
{16}8b>3[8:1],,,,6/8,,7,,4/6,,3,,2/6<1[8:1],,1,,
{32}2,3,4,5,,2,3,4,{8}5b>2[8:1],,{32}1,8,7,6,,1,8,7,{8}6b,,
{16}4/8,,7,5,6,,3/4,,2,,1/7,,2/6,,,,
{24}3,4,3,4,3,4,
{8}2v5[8:1],5V38[8:1],2,6,7,,
{16}1/7,,6,5,6-3[8:1],,4-8[8:1],,6,,4,,{4}7,
{16}2/8,,{32}2b,3,4,5,6,,,,7b/8b,,,,
{32}7b,6,5,4,3,,,,{16}2b/1b,,,,
{24}2,1,2,1,,,{8}3/8p4[8:1],4pp6[8:1],8,2,2-6-1[4:1],5x,
{8}2,4,4-8[8:1],2,4,1,7,,
{12}4h[384:1],6,2h[384:1],4,1h[384:1],7,
{12}5h[384:1],7,3h[384:1],5,1h[384:1],5,
{32}1b,8,7,6,4h[8:1],,,,,,,,8b,7,6,5,
{32}3h[8:1],,,,,,,,7b,6,5,4,2h[8:1],,,,
{16}3,,1,,{24}7,8,7,8,,,{16}1/6,,5,,{24}2b,3,4,5,,,
{24}7b,6,5,4,,,{16}3,4,3,,2/5,,1,,7/8,,6,5,
{16}6,,3,4,2,,1/5,,
{32}1bx/5bx,2/6,3/7,4/8,,,,,{16}7,5,6,4,
{16}5h[8:1],,3,,2/4,,1,,
{24}7/8,6,5,4,,,1/2,3,4,5,,,
{24}7/8,6,5,4,,,1/2,3,4,5,,,
{24}7/8,6,5,4,3,2,1/3,4,5,6,7,8,
{24}1/6,5,4,3,2,1,8/4,5,6,7,8,1,
{24}2/7,3,4,5,6,7,8/5,4,3,2,1,8,
{16}7/3b,3,4,2,6b,6,5,7,1b,1,2,3,8b,8,7,6,
{32}4,5,4,5,4,5,4,5,3,6,3,6,3,6,3,6,
{32}2,7,2,7,2,7,2,7,2bh[384:1],3,4,5,6,7,8,1,
{32}2bh[384:1],3,4,5,6,7,8,1,2/8,3/7,4,5,6,7,8,1,
{32}2/5,3/6,4,5,6,7,8,1,2v7[8:1]/6v3[8:1],5,4,3,2,1,8,7,
{1}6b/2b>2>4[120#4:5]/Cf,,,
{8}6h[4:3],,,,,,5h[4:3],,,,,,4h[4:3],,,,,,
{4}A2h[8:10]/D3h[8:11]/E3h[8:12]/B2h[8:13]/E2h[8:15]/D2h[8:17],
{2},,{8}E4,E5,E6,E7,
{8}E8,,,B8h[8:2]/B7h[8:4]/E8h[8:6]/A8h[8:7]/D8h[8:9]/A7h[8:11],,B2,E3,B3,,
{8}E4,B4,,E5,,A5,,,,E4h[4:12]/E6h[4:12],,,,,,{1},,
{4},E5,,,{1},
E
