&title=We Luv Lama
&artist=DJ SHARPNEL
&first=0
&des=RITLEV
&lv_5=14
&des_5=RITLEV
&inote_5=
(210){4},{8}4h[8:1],5h[8:1],4h[8:1],5h[8:1],{4}3b-1[8:1],
3,4-8[8:1],4,2-4[8:1],
2,1-5[8:1],1,6-8[8:1],
6,5-1[8:1],5,7-5[8:1],
7,8-4[8:1],8,7h[4:1],
{8}5,5,{4}6h[4:1],{8}4,5,{4}3h[4:1],
{8}5,4,6,5,{4}7h[4:1],2h[4:1],
{8}4,4,{4}3h[4:1],{8}5,4,{4}6h[4:1],
{8}4,5,3,4,{16}2-8[8:1],5,3,4,{4}2,
{8}7-5[8:1],8,{4}7/3-8[8:1],3,7-5[8:1]/3-8[8:1],
7/3,{8}4,2,5,3,{4}6,
{8}2-4[8:1],1,{4}2/6-1[8:1],6,2-4[8:1]/6-1[8:1],
2/6,5/8<4[4:1],{16}4,3,2,1,{4}8h[4:3],
E4,C,E8,6h[4:3],
E2,C,E6,{16}8,4,8,4,
7,3,7,3,8,7,6,5,4,3,2,1,8/4,5,6,7,
8,1,2,3,{8}4/8,{16}7,5,{8}6,{16}3,5,{4}4>5[4:19],
,,,6h[1:1],
,,,,4h[2:1],
,,2h[4:3],
,,,8h[1:1],
,,,,,,,4h[4:1]/5h[4:1],
,3/6,{16}6,5,4,3,{4}C,
{8},,,,4/5,6/3,{4}7/2,
,,,8/1v3z7[1:2],
,,,,,,,7v1z5[1:2],
,,,,,,,5v7z3[1:2],
,,,,,,,3v5z1[1:2],
,,,,,,,8h[4:5],
,,,2,
{2}1h[4:3],{16}8,7,6,5,{4}E5h[1:2],
,,,E1h[1:1],
,,,,,,,2/4,
5/7,1/8,{16}2<7[4:1],7,2,7,{4}2,
{8},,,,6/5,4/7,{4}3/8,
,,,3h[2:3]/5>5[1:2],
,,,,,,,5>5[1:2],
,1h[4:1],,3h[4:1],
,5h[4:1],,5>5[1:2],
,,,,,,,5>5[4:7],
,,,,,,,4h[1:1],
,,,B8h[2:1],
,2h[2:1],,B4h[1:2],
,,,1h[1:1],
,,,,,,,7/4,
2/5,4/5,{16}4,3,2,1,8,7,6,5,
4/7,8,1,2,3,4,5,6,7/8,1,2,3,4,5,6,7,
8,1,2,3,4,8,4,8,4-8[8:1],8,4,8,{4}4,
{8},,,,1/8,2/7,{4}3/6,
,1h[4:1]/8h[4:1],,1h[4:1]/8h[4:1],
{8},,,,,,,,,,8/1,
{16}1,8,1,8,1,8,2b-6[8:1],,,1h[16:3],
{4}2,{8}5-2[8:1],4,{16}5/1b,8,7,6,5-8[8:1],,,1h[16:3],
{4}5,{8}2-6[8:1],1,2,8,{16}7-3[8:1],,,8h[16:3],
{4}7,{8}4-7[8:1],5,{16}4/8b,1,2,3,4-1[8:1],,,8h[16:3],
{4}4,{8}7-3[8:1],1,{4}7,{8}5/1-6[8:1],{16}2,4,
{8}1,5,{16}5<8[8:1],,,4,{8}5,2,{16}1,2,3,4,
5/1,8,7,6,5/3-7[8:1],,,4,{8}3,6,{16}8>5[4:1],,,6h[16:3],
{4}8,{16}7,8,1,2,3-6-2-7[8:3],4,5,6,{4}7/3b,
{16},,,,5,1,5,2,5,3,5,4,5b,,,4,
5,3,6,5,{4}7h[8:1],{16}7/8,1,2,3,{8}4,{16}6,5,
7,4,{8}8,{16}8,7,6,5,1,2,3,4,5b,,,5,
4,6,3,4,{4}2h[8:1],{16}2/1,8,7,6,{8}5,{16}3,4,
2,5,{8}1,{16}1,2,3,4,8,7,6,5,4bh[16:3],,,2h[16:3],
,,{8}6,{16}5h[16:3],,,7h[16:3],,,{8}4,{16}1h[16:3],,,3h[16:3],
,,{8}7,{16}8h[16:3],,,6h[16:3],,,{8}1,8,{16}5,6,
,4,{8}5,1,{16}4,3,,5,{8}4,7h[8:1],{16}5,6,
{8}4,8,2h[8:1],{16}4,3,{8}5,1,{16}8<5[8:1],,,5,
{8}8-4[8:1],3,8/2-6[8:1],{16}2x,5,6,7,{8}8,{16}4>1[8:1],,,6,
{8}4-7[8:1],6,4,2,{16}8x,7,6,5,4/1>4[8:1],,,4,
{8}1-5[8:1],6,1/7-3[8:1],{16}7x,4,3,2,{8}1,{16}5<8[8:1],,,3,
{8}5-2[8:1],3,5,7,{16}1x,2,3,4,5/1,,,7,
{8}4,6,{16}5/2,,,3,{8}4,2,{16}1/5-1[8:1],,,2,
{8}5,2,{16}8,7,6,5,1,2,3,4,8,,,2,
{8}5,3,{16}4/7,,,6,{8}5,7,{16}8/4-8[8:1],,,7,
{8}4,7,{16}1,2,3,4,8,7,6,5,{4}4h[16:3],
{8}3,5,1/8-4-8[4:1],{16}7,5,{8}8,3,{16}2h[16:3],,,6h[16:3],
,,{8}4,{16}3/7-5[8:1],,,8,{8}7,4,{4}4h[16:3],
{8}6,4,8/1-5-1[4:1],{16}2,4,{8}1,6,{16}7h[16:3],,,3h[16:3],
,,{8}5,{16}6/2-4[8:1],,,1,{8}2,5,7/3,{16}6,5,
{8}8h[4:1],5,{16}4V28[16:3],,,6h[16:3],{4}4,{8}7,{16}6,8,
6,8,{8}6,{16}2,4,2,4,{4}2,{16}1-5[8:1],,,8,
{8}1,7,{16}8-3-8[4:1],,,1,{8}8,2,{4}4h[8:1],
4h[8:1],{16}6,4,6,4,5,3,5,3,6<1b[8:1],,,5,
{8}6,4h[4:1],2-8<5[4:1],2,{16}5,4,3,2,1-6[8:1],,,7h[16:3],
{4}1,{8}8<4[4:1],5,8,3,{16}3>8b[8:1],,,4,
{8}3,5h[4:1],7-1>4[4:1],7,{16}4,5,6,7,8-3[8:1],,,2h[16:3],
{4}8,{8}1>5[4:1],1,{16}5,6,7,8,1-6[8:1],,,2h[16:3],
{4}1,{16}1-4[8:1],,,8h[16:3],{4}1,{16}8-5[8:1],,,1h[16:3],
{4}8,{16}8-3[8:1],,,7h[16:3],{4}8,{16}4,5,3,6,
2,7,1,8,2,3,8,7,1,2,7,6,8-4[8:1],1,2,3,
{4}4/8b,{8}6/5,4/7,8/3,2/1,1/8,{16}6,5,
{8}7,2,8/1,{16}3,4,{8}2,7,1/5,{16}2,4,
{4}3h[8:1],{8}8/4,{16}7,5,{4}6h[8:1],{16}4-8[8:1],,,7,
{8}4,6,{16}5-1[8:1],,,2,{8}5,3,{16}8,4,8,4,
7,3,7,3,{4}6-1[8:1]/2-5[8:1],6b/2b,8s4[4:1],
,2z6[4:1],,5h[4:1],
4h[4:1],6h[4:1],3h[4:1],7q4[4:1],
,2p5[4:1],,8h[4:1],
1h[4:1],7h[4:1],2h[4:1],{16}6V84[4:1],,,5,
{8}6,4,2-5[8:1],1,{16}4bx,5,6,7,8-4[8:1],,,1,
{8}8<5[8:1],2,8,1-5b[8:1],4bx,1,{16}7V51[4:1],,,4,
{8}7,1,3-8[8:1],3,{16}1bx,8,7,6,5-1[8:1],,,4,
{8}5,3,8-4[8:1],4-8[8:1],{4}8,{16}2-5V37[8:3],,,1bx,
{8}2,7,{16}6<1[8:1],,,5bx,{8}6,5,4h[4:1],{16}1,8,
7,6,{8}5,5h[4:1],{16}8,1,2,3,{8}4,{16}7,5,7,5,
6,4,6,4,5,3,5,3,4,2,4,2,{8}5<8b[8:1],3,
{4}5,{8}4,8,2,6,1/5,{16}3,4,
{8}3,{16}5,4,{8}5,2h[4:1]/6h[4:1],,,8b/4b,{16}6,5,
{8}6,{16}4,5,{8}4,3h[4:1]/7h[4:1],{16},,,,6,5,6,5,
{4}7h[8:1],{16}3,4,3,4,{4}2h[8:1],{8}1/5,{16}7,8,
{8}6,{16}1,8,{8}2,5,3,4,8/4,{16}6,5,
{8}6,{16}4,5,{8}4,3/7,5,4,2/6,{16}4,5,
{8}4,{16}6,5,{8}6,3h[4:1]/7h[4:1],{16},,,,6,5,6,5,
{4}7h[8:1],{16}3,4,3,4,{4}2h[8:1],{8}8b/4,{16}2x,1b,
,3x,{8}6b,4b/8,{16}7x,5b,{32},,,,8b/4b,3/7,2/6,1/5,{4}8/4,
E
