&title=れ!
&artist=重音テト×あばらや
&first=-0.373
&des=wymcaT
&clock_count=4
&wholebpm=138.000
&lv_5=13+
&des_5=
&inote_5=(138)
{16},,,,
,,,,
,,,,
,,,,
{16},,,,
,,,,
2/5,,3/4h[8:1],,
1b,,2,2h[8:1],
{16},6,4,8,
{32}3,,5,,1,2,3,4,
{16}5/8-4[8:1],,,,
2-6[8:1],,,7h[16:5],
{16},,,,
1b,,,,
1>5[8:1],,8h[16:1],,
1,,6,6h[8:1],
{16},,8,7,
1,8,2,1,
3-7[8:1],,5h[16:1],,
3,,4,4h[8:1],
{16},2,1,3,
4b/8b,,2b/6b,,
,3,4,2,
6,5,7,4,
{16}6-4[16:1],,6,2-5[16:1],
,2,8,8,
,3,3h[8:1],,
2,,1,,
{16}8,7,6,5,
4b/1b,,2b/7b,,
1,,2/8h[16:1],,
1-5[8:1],,7,7,
{16}1b>4[8:1],,6,,
1b,,5,,
2,1,3,8,
4,4,6,3,
{16}4,3,5,4,
7b/3b,,6b/2b,,
1v3[8:1],,,4,
4h[16:1],,5h[16:1],,
{16}6,2,7,3,
8,4,1h[8:1],,
,5,1,3,
8,4,5,3,
{16}8,8,3,5,
2-6[8:1],,7,,
8-5[8:1],,,,
1-4[8:1],,,6h[8:1],
{16},,,,
3-6[8:1],,2,,
8-5[8:1],,,,
2h[16:3],,,4,
{16},,,,
7>2[8:1],,6,,
3<6[8:1],,,,
8-4[8:1],,,1,
{16},,,,
2-6[8:1],7,,,
8-4[8:1]/2,,,,
2>5[8:1]/8,,,6,
{16},,,,
,,,,
1-4[8:1],,,,
8-5[8:1],,,3h[8:1],
{16},,,,
6-3[8:1],,7,,
1-4[8:1],,,,
7h[16:3],,,5,
{16},,,,
2<7[8:1],,3,,
6>3[8:1],,,,
1-5[8:1],,,8,
{16},,,,
7-3[8:1],2,,,
1-5[8:1]/7,,,,
7<4[8:1]/1,,,3>8[8:1],
{16},,,,
,,,,
8,,7/1h[16:1],,
8-4[8:1],,2,2,
{16}8b<5[8:1],,3,,
8b,,4,,
7,8,6,1,
5,5,3,6,
{16}5,6,4,5,
2h[16:1]/6b,,3b/7b,,
8v6[8:1],,,5,
5h[16:1],,4h[16:1],,
{16}3,7,2,6,
1,5,8h[8:1],,
,4,8,6,
1,5,4,6,
{16}5,7,4,1,
5-1[8:1],,6,,
7h[8:1],,,,
2,2,1,1h[8:1],
{16},,3,4,
2,5,5h[8:1],4,
4,,2,2,
1,1h[8:1],,,
{16}3,4,1`6,8,
8h[8:1],5,5,,
,2,1,4,
7,8,5,5,
{16}3,1,4,8,
5,7,5h[1:1],,
7,,,,
8,,,,
{16}1,,,,
2-6[2:1],,,,
1,,1,,
3h[16:2],,,3h[16:2],
{16},,1h[16:1],,
2>5[8:1]/8-4[8:1],,17,,
2b/8b,,,,
2>5[8:1]/8-4[8:1],,16,,
{16}2b/8b,,,,
2-5[8:1]/8-5[8:1],,46,,
2bpp5[4:1]/8b,,,,
1,,8,,
{16}7-3[16:1],,6,,
2-6[16:1]/7,,1,,
8h[8:1],,,,
57,,46,,
{16}1-3-5[8:1],,36,,
1/8-4-6[8:1],,7,,
8-4-2[8:1],,1,,
8-4-6[8:1],,7,,
{16}8,,,,
7<4[8:1]/1-5[8:1],,82,,
7b/1b,,,,
7<4[8:1]/1-5[8:1],,83,,
{16}7b/1b,,,,
7-4[8:1]/1-4[8:1],,35,,
7bqq4[4:1]/1b,,,,
8,,1,,
{16}2-6[16:1],,3,,
7-3[16:1]/2,,8,,
1h[8:1],,,,
42,,53,,
{16}8-6-4[8:1],,63,,
8/1-5-3[8:1],,2,,
1b-5-7[8:1],,8,,
1b-4-2[8:1],,2,,
{16}1b-6-8[8:1],,8,,
1b,,2,,
16,,4,5,
2h[8:1],,4,3,
{16}1v3[8:1],2,4<7[8:1],,
1b,,4b,,
,,7,8,
6h[8:1],,8,7,
{16}4-8[8:1],5,2-5[8:1],,
4b,,2b,,
,,1,8,
2h[8:1],,6,5,
{16}1-5[8:1],2,6-8[8:1],,
1b,,6b,,
,,1/8,,
2>5[8:1]/7,,36,,
{16}2/8<5[8:1],,1,,
28,,1,,
83,,5,4,
7h[8:1],,5,6,
{16}8v6[8:1],7,5>2[8:1],,
8b,,5b,,
,,2,1,
3h[8:1],,1,2,
{16}5-1[8:1],4,7-4[8:1],,
5b,,7b,,
,,8,1,
7h[8:1],,3,4,
{16}8-4[8:1],7,3-1[8:1],,
8b,,3b,,
5,,3/4h[8:1],,
1b,,2,2h[8:1],
{16},6,4,8,
{32}3,,5,,1,2,3,4,
{16}5/8-4[8:1],,,,
2-6[8:1],,,7h[16:5],
{16},,,,
1b,,1b,,
8,,1h[16:1],,
8,,3,3h[8:1],
{16}2b,,1h[16:1],,
8h[16:1],,7h[16:1],,
6,,4h[16:1],,
6,6,5,5,
{16}8,,4,6,
5b/1b,,7b/3b,,
,6,5,7,
3,4,2,5,
{16}1,6,1,6,
8,7,8,7,
2b,,3,4,
3,,6,5,
{16}6,,3,4,
2,,6,5,
7,,3,4,
1,,6,5,
{16}8,,3,4,
8b,,6,5,
1b,,3,4,
7b,,6,5,
{16}2b,,3-5[8:1],4-6[8:1],
,,,,
,,,,
,,,,
{16},,,,
,,,,
8-5[8:1],,,,
8/1-4[8:1],,,1/6h[8:1],
{16},,,,
3-6[8:1],,2,,
3/8-5[8:1],,,,
8/2h[16:3],,,4,
{16},,,,
7>2[8:1],,6,,
7/3<6[8:1],,,,
3/8-4[8:1],,,81,
{16},,,,
2-6[8:1],7,,,
8-4[8:1]/2,,,,
2>5[8:1]/8,,,6,
{16},,,,
,,,,
1-4[8:1],,,,
1/8-5[8:1],,,8/3h[8:1],
{16},,,,
6-3[8:1],,7,,
6/4v2[8:1],,,,
2<6[8:1],,5h[16:1],,
{16},,5b,,
,3b/8b,,,
1b-4[8:1]/6b-3[8:1],,,,
16,,,5h[16:2]/2h[16:3],
{16},,,,
7-3[8:1],2,,,
1-5[8:1]/7,,,,
7<4[8:1]/1,,,3,
{16},,,,
,,,,
8,,7/1h[16:1],,
8-3[8:1],,4,,
{16}8b<5[8:1],,2,,
8b,,1,,
7,8,6,1,
5,5,3,6,
{16}5,6,4,5,
2h[16:1]/6b,,3b/7b,,
8v6[8:1],,,5,
5h[16:1],,4h[16:1],,
{16}3h[16:1]/7h[16:1],,2h[16:1]/6h[16:1],,
1h[16:1]/5h[16:1],,6h[16:1]/8h[16:1],,
1,7,1,7,
2b/6b,,2b/6b,,
{16}4,5,4,5,
3b/6b,,7b/2b,,
8h[8:7]/1h[8:1],,,,
4,,,,
{16}4,,,,
4,,,,
4,,7h[8:6],,
4,,,,
{16}4,,,,
4,,,,
46,,46,,
54,,4/5,,
{16}4,5,3,5,
2,5,1,5,
8-5-3[8:1],,,,
,,,,
{16}17,,35,,
28,,46,,
3/7qq4[4:1],,2-8-3[4:1],,
,,,,
{16},,,,
4h[8:1],,1-6[8:1],,
6<2[4:1],3,1,,
3h[8:1],,,4qq3[8:1],
{16},,7v5[8:1],,
,,,,
2v1[8:1],6,1>4[8:1],,
7h[8:1],,,8pp5[4:1],
{16},,,,
,,,,
4>8[8:1],6,3,,
5h[8:1],,,6,
{16},,2b/5b,4,
,3b/6b,4,,
3b>7[4:1]/6b,2,8,,
6h[8:1],,,5pp6[8:1],
{16},,2v4[8:1],,
,,,,
7v8[8:1],3,8<5[8:1],,
2h[8:1],,,1qq4[4:1],
{16},,,,
,,,,
5<1[8:1],3,6,,
4h[8:1],,,3v1[8:1],
{16},,6>8[16:3],,
,,,,
,,,,
,,,,
{16},,,,
8-5[4:1],,,,
,,,,
1-4[4:1],,,,
{16},,,,
8-5[4:1],,,,
,,,,
1h[8:1],,
{16},,1/6b,,
1/4b,,1/7b,,
1/3b,,2b/8b,,
,,57,,46,,
{16}1-3-5[8:1],,36,,
1/8-4-7[8:1],,6,,
8-4-1[8:1],,2,,
8-4-7[8:1],,6,,
{16}8,,,,
7<4[8:1]/1-5[8:1],,82,,
7b/1b,,,,
7<4[8:1]/1-5[8:1],,83,,
{16}7b/1b,,,,
7<4[8:1]/1>4[8:1],,38,,
7bqq4[4:1]/1b,,,,
1,,2,,
{16}3-6[16:1],,2,,
7-4[16:1]/3,,8,,
1h[8:1],,,,
42,,53,,
{16}8-6-4[8:1],,63,,
8/1-5-2[8:1],,3,,
1b-5-8[8:1],,7,,
1b-4-2[8:1],,3,,
{16}1b-6-8[8:1],,7,,
1b,,2,,
16,,4,5,
2h[8:1],,4,4,
{16}1-5[8:1],1,7-4[8:1],7,
1b,,7b,,
,,8,7,
1h[8:1],,8,8,
{16}4-8[8:1],4,6-1[8:1],6,
4b,,6b,,
,,1,8,
2h[8:1],,5,5,
{16}1-5[8:1],1,6-8[8:1],6,
1b,,6b,,
,,1/8,,
2>5[8:1]/7,,36,,
{16}2/8<5[8:1],,1,,
28,,1,,
83,,5,4,
7h[8:1],,5,5,
{16}8-4[8:1],8,2-5[8:1],2,
8b,,2b,,
,,1,2,
8h[8:1],,1,1,
{16}5-1[8:1],5,3-8[8:1],3,
5b,,3b,,
,,8,1,
7h[8:1],,4,4,
{16}8-4[8:1],8,3-1[8:1],3,
8b,,3b,,
5-1[8:1],,
{16},,6-2[8:1],,
,,7-3[8:1],,
,,8-4[8:1],,
,,
1b,,2,5,
3h[16:3],,4,5,
{16}1-5[8:1],2,7-4[8:1],6,
1b,,7b,,
,,2,7,
1h[16:3],,8,7,
{16}4-8[8:1],3,6-1[8:1],7,
4b,,6b,,
,,3,8,
2h[16:3],,4,5,
{16}1-5[8:1],2,6-8[8:1],7,
1b,,6b,,
,,1/8,,
2-6[8:1]/7,,36,,
{16}8-4[8:1]/2,,1,,
82,,1,,
1b,,7,4,
6h[16:3],,5,4,
{16}8-4[8:1],7,2v5[8:1],3,
8b,,2b,,
,,7,2,
8h[16:3],,1,2,
{16}5-1[8:1],6,3v8[8:1],2,
5b,,3b,,
,,6,1,
7h[16:3],,5,5,
{16}8,8,3,3,
6,6,1,1,
{16}2/5,,3/4h[8:1],,
1b,,2,2h[8:1],
{16},6,4,8,
{32}3,,5,,1,2,37,46,
{16}5b,
