&title=Random Access Emotions
&artist=aran
&first=-0.9
&des=0.5*0
&des_5=0.5*0=0
&lv_5=14+
&inote_5=(180){4},{16},,,,,,,,,,,,E8,
E4,E7,E3,E6,E2,B7,B3,B5,B1,A7/E7,A8,A1,A2,A3,A4f,
{1}Ch[1:3],
{8},1x-6[8:3],,,,,,7,
{1}7>2[2:1],
{8},6,{4}6/4x>1[4:1],{8},7h[4:1],,8qq6[16:9],
{1}1h[8:15],
{8},6,{4}6h[8:3],{8},,,5-3>2[16:5],
5,7h[8:3],,,,,{4}2h[4:1]/8h[8:3],
{16},,,,1x,1x,1x,1x,1x-5-7-1[8:3],1x,,,{4}1bx/2bx,
{8}3,3,3,3,2x/8,2x/8,{4}8/2x>4[8:1],
{8}5/2,5,5,5,7,7,{4}4bx/6bx,
{8}3/5h[8:3],3,3,3,2x/8,2x/8,{4}2x/8,
6b/4xh[8:1],8b,{8}6/4,7/1,5/3,8/2,
3/B5/E5/B4,3,3/B6,3,2/B7,2,{4}2/E8,
{8}6/E5/B4,6,6/B3,6,7/B2,7,{4}8h[4:1]/E2,
{16}5x,6,5,6,4x,7,3,8,2x,1,2x,7,3,6,4x,5,
{4}4x>2[8:1],4x/7-3-7[24:5],1x-4[8:1]*-6[8:1],B1f,
{8}3,B5,3,E8,3,E6,3,B8,
3h[8:1],4,3h[8:1],1,3h[8:1],4,{4}5/1>4[8:1],
1/7h[8:1],{8}7,E2,7,E4,7,B1,
7h[4:1],5b,,4b/6bpp4[8:3],,6x/3x,,,3,
B8,3,E6,3,E8,3,B5,
3h[8:1],1,3h[8:1],4,3h[8:1],2>5[8:1],,,6,
B4,6,E2,6,4,{4}2x/5x-8[8:1],
5/1V74[16:3],1x,{8},8b,{4}8b,
{8}7/2h[8:5],,,8h[4:1],{16},,,,1x,1x,1x,1x,
{8}1x,8x/2xV84[16:3],3,4,5,6V48[16:3],7,8,
1,2<7[8:1],3,4,5,6-4[12:1],7,8,
{4}1bx-6[8:1]*-5[8:1],1b,7x/3xpp8[8:3],3,
{2}7s3b[4:3],{8}8,1-5[8:1],{4}2,
{8},4x,{4}3h[8:3]/E7f,{8},2h[4:1],,1,
{4}8h[4:1]/E4f,{8}7,6,3/5,2,6/4,7,
5/3,8,5/2<7-4b[4:1]*<7[8:1],7-3[8:1],,,,,6x/8x<5[16:3],
1,2,3,4>1[16:3],5,6,7,
8,1>4[8:1],8,7/1,6<1[8:1],5,6/4-7[8:1],3,
2/4,1-4[8:1],8,1/7s3[4:1],,3V17[4:1],,7V53[4:1],
{4}3x,1,7,3b/5b,
{8}6x/1x>4[16:3],8,7,6,5<8[16:3],4,3,2,
1,8<5[8:1],1,2/8,3>8[8:1],4,3/5-2[8:1],6,
7/5,8-5[8:1],1,8/2-8[12:1],3,4/2,5,6,
7/4,8x/2x,{16}1x,1x,1x,1x,{4}1x-5>3[4:1],3bx-7[8:1],
{2}2h[2:3],4,
4,{4}4>3-1[4:1],6h[2:3],
{16},8xp4[16:5],,,,,,,,,,,,,{8}4,
,,4,3x/6b,4,5,{4}6x/8b-5[8:1],
{2}8/2bxh[4:1],4h[4:1]/3h[4:1],
5h[4:1]/4h[4:1],6h[4:1]/5h[4:1],
{1}5w1[8:5],
{2}5-1b[4:1],8bxh[16:7],
{32}7b/1b,2/6,3/5,4xh[32:9],,,,,,,,,{8}1b-5[8:1],2,1x-3[12:1]/4-7[8:1],,1b/4-8[8:1],
,4x-6[12:1],,4x,3,7>1[12:1]/2x>3-5[8:1],1,7/2b-6[8:1],
,7-4[8:1]/2-8[12:1],8,7x/2x,{24},,,5bx/1bx-6[8:1],6/2,7/3,{8}8/4,1x/5xh[8:3],
,,2x,7-4[8:1],1>4[8:1],7,1x-5b[8:1],5xV31[16:3],
1b,7,,8<5[8:1],3,8-4b[8:1],4-2-5[24:5],8b,
1h[6:1],,,1>4[8:1],5,1-6b[8:1],6-4-2[16:3],1b,
7xh[6:1],,,8-4b[8:1],1,8x/2>5[8:1],{32},,,,2-6[8:1]/1b-5[8:1],8,7,6,
,,,,{8}2/1b<6[8:1],{32},,,,1/2b,3,4,5,,,,,{8}5x/6x,4x-7b[8:1],3/5,
2bh[8:3],,,7x-4[8:1],8v3[8:1],7,8,5x-8[8:1],
,2x/5x-3[12:1],,5x,8,7>1[12:1]/2x-5[8:1],1,7/2b-6[8:1],
,7-4[8:1]/2-8[12:1],8,7x/2x,{24},,,5bx/1bx-6[8:1],6/2,7/3,{8}8/4,5x/1x-4b[8:1],
,1x/5x,,4x/6x,5/7,{16}8b,7,{8}1,2/6,
{4}5bx/1bx>5[16:3],{16}5x,6,7,8,{4}1b-6[16:3],{16}5x,4,3,2,
{4}1b-4[16:3],{16}5x,6,7,8,{4}1bh[4:1],{16}5x,4,3,2,
1b/8x,7,6,5,8x/4x<8>4b[8:3],1,2,3,{4}4bx,{16}4x,5,6,7,
8b/5x,6,7,8,1x,2,3,4,5x/1bx-7>4[8:3],2,3,4,{4}5bx,
{8},6h[24:5],{16},,5,6,{8}7/4,3h[24:5],{16},,4,3,
{8}2/5,6h[24:5],{16},,5,6,{2}7/4pp1[16:5],
{8}6xh[3:1],{16},,,,5,7,{8}8/4,3h[24:5],{16},,4,2,
{8}1/5,7h[4:1],,5,6/4x-1[8:1]*-8[8:1],8x<7-5[6:1],,,3,
3h[24:5],{16},,4,3,{8}2/5,6h[24:5],{16},,5,6,
{8}7/4,3h[24:5],{16},,4,3,{8}2/5h[8:1],1h[8:1],,2/6,
{16}8b/7,1,2,3,8b,7,6,5,1b,2,3,4,{24}7bx,6,5,1bx,2,3,
8bx,7,6,{96}2bx,,,3,,,{32}4,5,6,7,8,1,2qq5[16:5],3,4,5,6,7,8,1,{8}2x,,,7b,
8/3,{16}2b,1,2,1,{4}3/8<4[16:3],{24}4,3,2,1bh[8:1],{48},,,,,,,{16}6x,
2,5,1x,2,3,4,{4}7/5>1[16:3],{16}1,8,7,6,
{4}5bh[8:1],{24}1x-5[8:1],2,3,7,6,5,{4}1b,{16}8/1xh[8:1],7,6,5,
{8}4b,1bx,{16}2,7,4,5,{8}3b,4bx/6b,7/3x,2,
{4}1b/5b>1[16:3],{16}1bx,8,7,6,{8}5bh[8:1],1>5[16:3],{24},,,5,6,7,
{4}8bh[8:1],{16}6,5,6,5,{8}4/7,6x/3,{16}1/7h[4:1],2,3,4,
{4}5bh[8:1],{24}8x-4[8:1],7,6,2,3,4,{8}8b,,,3x-8[8:1]/5x-1[8:1],
,5bx/3bx,{16},2x,3,4,{8}5x/7bx-3[8:1],2bx,{4}7bx/4bx<8[16:3],
2/4b,{16}7b,8,7,8,{4}6/1>5[16:3],{24}5,6,7,8bh[8:1],{48},,,,,,,{16}3x,
7,4,8x,7,6,5,{4}2/4<8[16:3],{16}8,1,2,3,
{4}4bh[8:1],{24}8x-4[8:1],7,6,2,3,4,{4}8b,{16}1/8xh[8:1],2,3,4,
{8}5b,8bx,{16}7,2,5,4,{8}6b,5bx/3b,2/6x,7,
{4}8b/4b<8[16:3],{16}8bx,1,2,3,{8}4bh[8:1],8<4[16:3],{24},,,4,3,2,
{4}1bh[8:1],{16}3,4,3,4,{8}5/2,3x/6,{16}8/2h[4:1],7,6,5,
{4}4bh[8:1],{24}1x-5[8:1],2,3,7,6,5,{4}1b,{8}4x/3-8[8:1],{16}2,1,
{8}3b,7b-4[8:1],6/2,7bx/1b<7[8:1],2bx,{16}6bx,5,4,3,2,1,
{4}8h[4:5]/B4f,5x,,5,
,5x-7[8:1],3h[1:2],8,
,7,,6,
,5,{8}6x,7/1,8-4[8:1],1,
{4}2bh[4:1]/Cf,{8}5,5,6/1,6,7/2,7,
8/3,8,1/6,1,2/7,2,3/8,3,
{16}4x,7,4,7,3,6,3,6,2,5,1x-6[8:1]*-4[8:1],5,,,{8}Cf/1<8v5b[16:3]*>2v5b[16:3],
,Cf/1<6[8:1]*>4[8:1],,1,{16},,5,5,{8}3bx-8[8:1],6/2,
5/3,7b,6/1-6[8:1],5,1V35[16:3],5,1<6[8:1],7,
1/3x,2,5x<8[16:3],1,5-3[12:1],1V75[16:3],5,1bx,
,8,7,6/2,5/3,6/2-6[8:1],5,2-5[8:1],
7,2<7[8:1],6,2,,6,8/Cf,8,
1,1,2/6,2,3/6,3,4/7,4,
5/2,5,6/3,6,7/4,7,8/3,8,
1/7,1,{16}2,8,2,8,1,7,1,7,8,6,8,6,
{32}1x,2,3,4,5,6,7,8,{16}1x,1x,1x,1x,1x-5V71[16:5],1x,1x,1x,{4}1x,
{8}3bx,B5,3,E8,3,E6,3,B8,
3h[8:1],4,3h[8:1],1,3h[8:1],4,{4}5/1>4[8:1],
{8}7/1,B4,7,E2,7,E4,7,B1,
4b/6b-1[8:1],7bx/3bx,{4}4bh[2:1]/6b<3>6b[16:7],,Cf,
E
