&title=Triad of Dryad
&artist=MYUKKE.
&first=0
&des_5=沨awa
&lv_5=14
&des=沨awa
&inote_5=(170)
{16},,,,,,,,,,,,,,
{24}3x/5x,2x/6x,1x/7x,8x>4[2:1],,,
{16},,
{4}E8,B1,E3,1x<5[2:1],E4,B2,E1,8x>4[2:1]b,7,8,1,1<6[4:1]b,2,3>8[4:1],4,
{8}7-5[8:1],7,7-1v3[4:1]b,,,,,,2-4[8:1],2,2p1[4:1]b,,,,,,
{16}2,1,2,1,4,,5,,8,7,8,7,4,,5,,
{8}8/2,4/6,1/7,3/5,1/2-5[8:1],8,1b/2bx,,
{8}7-4[8:1],8,1,2v5[8:1]b,,2b/8-4[8:1],,8,
{8}1-5[8:1]b,2,1/3,2-4-8[5:1],,2b/6b,,,7-3[8:1],3-7[8:1],7,1-5b[8:1],,1b,8,7,6-8[8:1],5,4,3-5[8:1],2,1,8x,,7-5-1[4:1],5,4,2-6[8:1]*-5[8:1],,2b<8[8:1],,2x,7h[8:3],6,5,4,3hx[4:1]/C,2x,1bx,,
{16}3,,3,4,3,,6,5,6,5,6,,1,8,1,8,2,6,3,5,4,7,3,8,1bx,,,,,,,,
{16}1h[4:1]/5,,,,5-1[8:1],,2,3,4bx/5bx,,,,7,,1/2q6[8:1],,,,2,1x,8x,,3,4,1,,,,6/5,,1h[4:4]/2b,,
{8},E8,E7,E6,E2,E3,E4
,Ch[4:1],,7,6,5
,1-5-8[4:1],2,3-6[8:1]b/1x,,
{8}3,,7h[8:1]x,
{16}8,1,2b-5[8:1],,,,
{8}8-5[8:1],8,,1,1,
{16}3,4,3,,
{8}2qq5[8:3]/5,,2/6h[4:1],,,7,7,8,8,
{16}1-5[8:1],2,3,4,5b/1b,,,,3,4,3,4,2b/5b,,6,5,4b/7bv4[8:1],,,,
{32}E2,B1,B8,E8,,,,,
{8}2,
{16}4,3,4-8[8:1],,,,4bx/3bx,,2b,,,,2,1,2,,7,8,7,,,,
{8}1/8,2/7V53s7[8:6],,B2,B8,B6,B4,B1,B3,2xz6[8:2]b,,2,1bx-5[8:1],8,1b-3-5[6:1]b,,,,
{16}1h[8:1],,,,2-5[8:1],,3,4,2,,,,8-4[8:1],,7,,8,,,,
{8}2,2h[2:1],3,4,5,6,
{16}7,8,7,8,5,4,5,4,1,2,1,2,5,4,5,4,
{4}5b,E7,C,E3,
{16}2bx,4,3,4,2,4,1,4,3,4,3,4,2,4,1,4,2bx,5,4,5,3,5,2,5,4,5,4,5,3,5,2,5,3,6,5,6,4,6,3,6,5,6,5,6,4,6,3,6,4,7,5,7,4,7,3,7,5,7,5,7,4,7,3,7,2bx,1,2,1,4,7,4,6,8,7,8,7,1,6,2,5,3bx,4,3,4,2,6,8,6,1,5,2
,6,3,7,4,7,5,6,5,6,4,7,3,8,2,1,2,1,3,8,4,7,8,6,8,6,1,5,2,4,3,7,4,7,5,7,4,7,
{8}3hx[4:1],,4,5,6b-3[8:1]/C,,6,2-4[8:1],,2,1-5[8:1],8,7x-5[8:1],,7,8-5[8:1],,8,1-6[8:1],2,3b>8[8:1],,3,4v7[8:1],,4,1,2,
{16}5,3,5,3,6,4,7,4,
{8}8w4[8:1]b,,8b,,6/2,,7,7bx/C,,3,3x/E5,3,2bx/C,,8,8bx/C,,1,1x/E1,1,2bx/C,,7,7h[2:1],,5,4,3,
{16}2,1,3,8,4,7,5,6,
{32}5xz1<6[4:5]/6xs2>5[4:5],E7/E5,B7/B4,B8/B3,E1/E3,,,,
{4},,,,,,1x-5b[8:1],1xp4>1[1:1]*q6<1[1:1],,,,,,,8x-4[8:1]b,8xz4>1[1:1]*s4<7[1:1],,,,
,,,
{8}8x,8x,E1,E2,E3,E4,,A8,A7,A6,1x-5[8:1]
,5-3[8:1],1,7-3[8:1],8,7,2b,,
{8}6h[2:1]/5,5,7,8,1h[4:1],7,8,2,3h[2:1]/4,2,1
,8,7h[4:1],6,5
,4,3h[2:1]/Cf,2,1,8,7h[4:1],6,5,4,3,2/4,2/4,1/5,1b/5b,,
{16}2,1,2,1,
{8}2h[2:1],3,4,5,6h[2:1],7,8,1,2h[2:1],1,8,7,6h[4:1],5,4,3,
{16}7-5[8:1]/1,,3,4,7,,1,,4,3,4,3,1-5[8:1],2,1,2,
{4}1>4[8:1]*<6[8:1],1w5[8:1]b,1bx,
{16},,7x,8x,1x-5[8:1],,3,
,1,,2-6-3[4:1]b,,7,,2,
,8<5[8:1],,7,,8/1V35[8:1],,2,,
{8}1/6V82[8:1],7,3-5[8:1]/6,4,7-1[8:1]/3,8,
{8}2-4[8:1]/7,4-8[8:1],2/8-2[8:1],7-5[8:1]b,5-8[8:1]b,7,2
,3x,4,3/5,2-5[8:1]b/6,1/7,8h[16:8],
{16},,1,2,3,4,
{8}5-2[8:1],7,6-8[8:1]/5,7,1-3[8:1]b/6,3-8[8:1]b,7-5[8:1]/1,5-1[8:1],7,2-4[8:1],7,2<8[8:1],7-5[8:1],2,7,2b,
{16}6,4,6,2,6,8,6,4,7,2,7,5,7,3,7,4,
{8}5/6,7/8
,1>5[4:1]/2-4-6[4:1],3/4,1/2,,,,
{16}1-5[8:1],6,3,7,1,,7,7,8,1,2,3/4,5,6,7,8,
{8}2b-6[8:1],6x-3[8:1],2,7-4[8:1],8,7,1-5[8:1],2,1/3-6[8:1],4,3/7-2[8:1],8,7/3v6[8:1],4,3>8[8:1]b/7,8-4[8:1]b,3,7-5[8:1],5-1[8:1],7,2-4[8:1]b
,4-8[8:1]b,2/7,,
{16}7,6,5,4,1,2,3,4,8,7,6,5,2,3,4,5,7,8,7,8,5,4,5,4,1,2,1,2,4,3,5,2,6x,,4,5,3b/6b,,7,8,6b/1b,,2,1,3b/8b,,4,5,3,6,3,6,2,7,2,7,1-5[8:1],8,1,8,1b,,,,
{8}E7/B7/B6,B5,B4,B2/B3/E3,,E1,,C,B2/B3/E3,B1,B8,B7/E7/B6,,B5,B4,,E2,E8,,C,,E7,C,E3,2-4[8:1],1,8,7<5[8:1],8,1,2b,,E8,B8,B1,E2,,E7/B7/B6,,B2/B3/E3,2x,1x,8x,7x,,B2/E2/B7/E8,B6/E6/B3/E4,,6,6h[4:1],5,4,3,3h[4:1],4pp8[2:1]*qq8[2:1],5,4bx,,,,,,
{16},,5x,6x,7x-1-6[1:1],,,,
{4}E1,E2,E3,3-5-2[1:1]b,E6,E7,E8,
{8}1,1,8,8,
{16}6,5,6,5,6,,3,4,
{8}2-7[8:1],2,3,4,5-2[8:1],5,6b,,
{16}7bx,,7,1,7,,3,4,3,5,4,5,2,,6,5,6,4,5,4,7,,3,4,2,1,3,4,2,,7,5,6,,6,,3,,3,,7,5,6,2,4,3,8,1,
{8}2-5[8:1]/7-4[8:1],,2/7,1-5[8:1]/8-4[8:1],,1/8,A5/A4,,,,,,
E
