&title=Runaway
&artist=LeeZu
&first=0.03
&des=35164738563524865
&clock_count=4
&lv_5=14
&inote_5=(140){4},{1},,{4},{16}1,
{32}8,1,{16}8,2,3,4,5,6,
{4}7/8-5[8:1],8z4[4:1],,8b,
{8}1h[8:1],{16}4,3,5,3,4,2,{8}1h[8:1],8h[8:1],7h[8:1],6,
6,{16}4,6,4,5,4,7,8,7,2,3,2,7,5,6,
{8}4h[8:1],{16}5,5h[8:1],,4,{8}4/6,{16}2,4,2,4,3,5,4,6,
{8}5h[8:1],{16}4,4h[8:1],,3,{8}3h[8:1],7,{16}7,6h[8:1]/5h[8:1],,,{8}5/6,
4b,{16}7,1,7,8,7,1,{8}2h[8:1],3h[8:1],4h[8:1],5,
6h[8:1],{16}3,3,4,3,5,2,6,3,4,3,6,4,5,4,
{8}7h[8:1],{16}8,8h[8:1],,1,{8}1h[8:1],{16}2,4,3,5,8,7,1,6,
2,5/2,,6h[8:1]/4h[8:1],,,{8}6/4,{16}1,8/1h[8:1],,4,{8}4w8[8:1],8,
{1}4b-2-5-8[8:5]*-6v3-8[8:5],
{8}6,6,6,4/6,3h[16:3],{16}5,5,{8}3h[8:1],4,
2,2/4,{16}2,4,3,5,{8}4h[16:3],{16}5,6,{8}4h[8:1],7h[8:1],
6,5,6/4,6/3,{16}2,4h[8:1],,2,{8}2h[8:1],1,
8,7/6,8,1/2,{4}8-5b[8:1],8/1,
{8}3,3,3,5/3,6h[16:3],{16}5,5,{8}6h[8:1],4,
{16}4,5,4,5,3,4,3,4,{8}2h[16:3],{16}3,3,{8}1h[8:1],3,
4h[4:1],1,5h[8:1],6,5/7,{16}8,8,{8}5,6/5,
{2}7b-5[8:1]/4b-6[8:1],{16}2,2,4,3,1,8h[16:3],,,{8}6>1[8:5],
7xh[16:1],7xh[16:1],7xh[16:1],{16}6b,,,6b,,,{8}6b,
5<1[8:5],3xh[16:1],3xh[16:1],3xh[16:1],{16}4b,,,4b,,,{8}4b,
5xh[8:1],{48}E1,E8,{12}E7,5xh[8:1],{48},,E2,E3,{12}E4,{8}5xh[8:1],{48}B1,B8,{12}B7,5xh[8:1],{48},,B2,B3,{12}B4,
{8}7bx,6x/5x,4x/3x,2bx/1bx,{16}1/2,2/1,{8}3h[16:1]/8h[16:1],7h[16:1]/4h[16:1],{16}5,6,
{8}4>7[8:5],5h[16:1],5h[16:1],5h[16:1],{16}4b,,,4bq8[8:1],,,{8}4b,
,2bx/1bx,{24},,,,,,E3h[4:1],{48},,,,,,,,B7,B6,{4}E6h[4:1],
{8}4,{16}3,3,{8}5,{16}4,4,{8}6,{16}4,5,{8}3,{16}2,4,
3x,,,5x/4x,,,{8}5xh[8:3]/6xh[8:3],{48},,,,,,,,,,,,,E7/E5,B7/B4,B8/B3,{6}E1/E3,
{8}Cf,{16}6,6,5,6,4,7,3x/5x,,,4x/2x,,,{8}8x/1x,
1,{16}B2,B6,E4,B7,B1/E2,E6,4x,4x,,,7x/5x,7x/5x,,,{8}6-8[8:1],
{16}4,5,6,5,{8}4,{16}2,4,3,5,3,4,2,5,
{12}3xh[24:1],3xh[24:1],3xh[24:1],4xh[24:1]/6xh[24:1],4xh[24:1]/6xh[24:1],7xh[24:1]/3xh[24:1],{2}8x-3[8:1],
{8}4b/3b,{16}2,2,4,3,5,2,1x/6x,,,5x/4x,,,{8}8x/3x,
8h[8:1],{16}6,7h[8:1],,1h[16:3],,,4h[16:3],,,3h[16:3],,,{8}5h[4:1],
{16},,4-2[8:1],5,6,5,{8}4,{16}5,5h[8:1],2,2,4,4,3,3,
{8}6,{16}4,6,4,5,{8}3h[8:1],4,{16}2,4,2,3,{8}1h[8:1],
{48}8bh[8:3],,,,,,,,,,,,,,,,,,,E8/E1,B7/B1,B6/B2,{24}E3h[24:13]/E6fh[24:25],{1},{8}1b>7[4:3],
,,5x,
{2}5x<3[4:3],{8}1>7[4:3],,,5,
{4}5<3[4:3],1,{8}1>5[2:1],,,6,
{4}6<4[4:3],6,{8}2>8[4:3],,,6,
{4}6<8[4:1],1-4b[8:1],1b,{8}8,8,
{4}8<2[4:3],6,{16}4>6[4:3],,,8,,,{8}8,
{4}8<4[2:1],4x,{2}3h[2:1],
{4}4h[4:1],{8}5,6,{16}7/5,5/7,,,,,6/4,6/4,
{2}5b-3[8:1]/3b-6[8:1],{16}2h[4:1],,,4,{8}4,5h[4:1],
,4,3,3,{16}6h[16:3],,,5,{8}6,4h[4:1],
,5,6/3,3/6,{16}2-5[8:1],,,5,{8}2,6xh[4:1],
{24},,,5,6,5,{8}7,7,{16}8/5,,,6,{8}5,4h[4:1],
{16},5,{8}5,3b,3b,{24}2,3,4,6,5,4,2,3,4,6,5,4,
1,2,3,7,6,5,3,4,5,8,7,6,1,2,3,8,1,2,7,8,1,6,7,8,
5,4,3,5,6,7,4,3,2,5,6,7,{16}2x,2xh[8:5],,,,,5x,5xh[4:1],
,,,,{4}B4/B3,{16}7x,7xh[16:11],,,,,4x,4xh[8:3],
,,,,,6,5,4,{2}4bp1[4:13],
{4},,,,,,,,8,
8,7,7,
6,1/6h[4:1],{16}5,,,6,6h[16:3],,,5,
5h[16:3],,,4,{8}4h[8:1],3,{16}2h[16:3],,,3,3h[16:3],,,4,
4h[16:3],,,5,{8}5h[8:1],6,7/4,{16}6,5,,3,{8}4,
{16}7,5,,2,{8}4,5/6,{4}8-5[8:1],8z4[4:1],
,8b,{8}2/4,4,4/3,4,
4/8,4,4/3,{16}5,5,{8}4/6,4,4/5,4,
4/8,4,6/4,4/6,5/3,5/2,5/1,5,
5/4,5,2/5,{16}4,4,{8}5/3,3,7/3,3/6,
{16}1,5,3,4,3,6bh[16:3],,,5x,6,4,6,3x,5,2,4,
1x,8,2,7,5x,6,4,5,3x,4,2,5,3x,7,4,6,
5x,6,4,7,1x,4,2,4,3bx,5,1,6,4x,7,3,8,
5x,6,3,5,2x,4,8,6,{2}5b,
{16}4x/3x,,,5x/2x,,,{8}1x/6x,{16},,,,,,,,6/4,
7/3,,2/5,{8}1/6,3/8,{2}5h[1:1]/4h[1:1],
{4},,{48}D6/D4,A6/A3,D7/D3,A7/A2,
E
