&title=You&合図
&artist=音乃瀬奏
&first=1.235
&lv_5=13
&des_5=CHaoo-D
&inote_5=
(180){8}E8,E7,{4}E6,{8}E2,E3,{4}E4,
{8}6h[8:3],3,2,1,{4}C,6,
{8}E2,E3,{4}E4,{8}E8,E7,{4}E6,
{8}3h[8:3],6,7,8,{4}C,3,
{8}1/8h[4:1],2,{4}3,{8}5/4h[4:1],6,{4}7,
{8}3qq7[8:3],5,5,6,{4}6,B6h[4:3]/B5h[4:3],
{8}1,2,2,3,{4}4b-1b[8:1],B7/E8,
{16},,,,6,5,,,3,4,,,{4}7<4[8:1],
{8}8,1,{4}2>5[8:1],{8}6,7,{4}8-4[8:1],
{8}1,2,3,5,{4}6<1[8:1],2>5[8:1],
{8}2,8,{4}7<4[8:1],{8}3,2,{4}1-5[8:1],
{8}8,7,6,4,{4}3>8[8:1],6,
2qq4[8:3],5,6-3[8:1],6,
2h[2:1],5,7h[4:1],{8}4,3,
{2}2<6<2[2:1],{4}4,5,
B3/B4/B8/B7/E4/E8,B1/B2/B6/B5/E6/E2,{8}7/8,1/6,{4}2b/5b,
{8}6-1[8:1],6,2-5[8:1],2,7,7,1/8-6-3[4:1],2,
{4}8b/1-4[8:1],1b,{2}1p5[8:1]/5p1[8:1],
{8}3v8[8:1],3,6p3[4:1],6,2,2,1,1h[1:1],
,5,6,6,7,7,A8,C,
{1}A4,
{8}1-3[8:1],8-6[8:1],1-5[8:1],8-4[8:1],1,8,3,6,
{4}7bxh[8:1]/5bxh[8:1],3bh[8:1]/1bh[8:1],8bxh[16:1]/6bh[16:1],4bh[16:1]/2bh[16:1],
{24}8b-5b[8:3],1-4[8:3],{4},,,{16},,{24},{4}4/8<6-3[4:1],
{8}2/8,1,{4}2-7[8:1],{8}6/2,6,
{4}5>1[4:1],1-7v4[4:1],4,1,
{32}E6,B6,B7,E8,,,,,,,,,{8}4v3[8:1]/8-5[8:1],{2}4/8,
{32}E6,B6,B7,E8,,,,,,,,,{8}4v2b[8:1]/8v5b[8:1],{2}4/8,
{4}8V64[4:1],{8}1pp4[8:3],2,{4}1,{8}6-8[8:1],6,
{4}6-3[8:1],6,4-1[0.3333##0.1667]/8-5[0.3333##0.1667],8/4,
{48}E3/E7,E4,E8,E5,E1,E2h[8:3]/E6h[8:3],,,,,,,,,,,,,,,,,,,E5/E1,E4,E8,E3,{12}E7,,,,,{4}7h[4:3],
2,3,4-1[2:1],
E1,B7,B5,6/2-5[8:1],
2/8-4[8:1],8/2q6[8:1],2/6,7/3h[4:1],
5,4/6p3[8:3],3,2,
1q5[8:1],1,{2}8-6[8:1],
{4}1,3,{2}5q6[4:1],
{4},,8v5[8:1]/4-1[8:1],4b/8b,
A7h[1:7],4,,2,
,8,,6,
,D5/E5/E4/D4/B4/A4f,{8},,A2f/D3/B2/E3/E2/D2,,
,,{4}A8f/D8/E8/B8/E1/D1,,B6/E6/E7/D6/A6f/D7,
{32},,,,,,,,B4,A4,,,,,,,,,,,,,,,B2,A2,,,,,,,,,,,,,,,B8,
A8,,,,,,,,,,,,,,,B6,A6,,,,,,,,,,,,,,,{4}5,
4,3,
2,1,5-1[8:1],5w1b[8:1],
{1}5bx<5[4:3],
{4},3/6-3b[8:1],2,1h[4:5],
B1,B2,B3,B4,
B5,3/6-3b[8:1],2,1h[4:5],
A8/B8,A7/B7,A6/B6,A5/B5,
A4/B4,2>6[4:1],6<2[4:1],2z6[4:1],
{8},,,7,{2}7s3b[3:1],
{4},2,{6}1-3[8:1]*v8-6[3:1],{12}8,1,,,{4}B5/B4/E5,
B7/B8/B1/B2/B3/B4/E5/D5,{6}6,{12}1,1s5[4:1],,7,
{4}7,8,{6}6,{12}6,5,,5,
{4}4h[4:1],3h[4:1],2h[4:1],1h[4:1],
8-4[8:1],8/2,{6}6,{12}6,1-3[12:1],,5,
{4}1bx/4-8[12:1],2/4bx,{6}7,{12}3,3,,2/5,
{4}6bx-1[12:1]/1bx-5[12:1],1bx/6bx,{6}3,{12}5,4,,6,
{4}5<1[4:1],1>5[4:1],5<1[4:1],1,
{2}5w1[8:1],4w8[8:1],
{4}2bh[2:1]/6bh[2:1],,,3>7>3[1:1],
E7,B5,B3,B5,
E7h[2:1],,,2>6>2b[1:1],
E7,B8,B2,B8,
{2}E7h[4:7],{12}E3h[4:5],,,,,E6h[6:5],
,,,,,,{2}E4h[4:1],
{4}8-5[8:1],8/3,{6}2h[6:1],6,{24},{8}Cf/B7/E7/B6/B2/B3/E3,
,,,,,,,,{1}1pp5[1:3],
{2},,A8,
A7,
{4}A6,,,7h[1:2],
{2}B8/E1/B1,B3/E3/B2,
B5/B4/E5,B6/E7/B7,
{4}5>1[4:3],6,7,8,
7h[4:3],2,3,4,
3/5,3/5,6/4,6/4,
5/2,2/5,7/4,7/4,
6/2h[4:1],{8}6,7,{4}4/8h[4:1],{8}4,3,
{4}6/2h[4:1],{8}6,7,{4}8/4h[4:1],{8}8,8,
2,2,6,6,4,4,5,5,
3/4,3,6/5,6,4/2,2,5/7,7,
{16}1,8,1,8,2,7,2,7,3,6,3,6,4,5,4,5,
{1}6b/3b,
1-4[8:7]/8b-5[8:7],
,6h[1:1]/3h[1:1],
{4},2/8v3b[8:1],8b/2-6b[8:1],7/2b,
8V64[4:1],{8}1pp4b[8:3],2,{4}1,{8}6-8[8:1],6,
{4}6-3b[8:1],6,4-1[8:1]/8-5[8:1],8/4,
{48}E3/E7,E4,E8,E5,E1,E2h[8:3]/E6h[8:3],,,,,,,,,,,,,,,,,,,E5/E1,E4,E8,E3,{12}E7,,,,,{4}7h[4:3],
{8}1,1,2,3,{4}4-1[2:1],
E1,B7,B5,6/2-5b[8:1],
{8}2/8-4b[8:1],7,8/2q6b[8:1],3,{4}2/8-5b[0.3333##0.1667],8/3h[4:1],
7,{8}4/6p3[8:3],4,3,3,2,2,
{4}1q5[8:1],{8}1,7,{2}8-6[8:1],
{4}5<1[4:1],1>5[4:1],{2}5q6[8:3],
{4},,8v5[8:1]/4-1[8:1],4b/8b,
{1}3xh[1:1]/7xh[1:1],
{4},E8,B6,A5h[4:7],
{8}2,2,{4}2,{8}1,1,{4}1,
{8}8,1,2,3,{4}4>1[8:1],4,
{8}7p3[8:1],8,{4}7,{8}2q6[8:1],1,{4}2,
{8}8,7,5x/6x,5x/4x,{4}3x-7[8:1]/4x-8[8:1],4/3,
{8}1,2,3x/4x,4x/5x,{4}6x-2[8:1]/5x-1[8:1],6/5,
{2}3h[4:1]/8h[4:1],{8}7,6,{4}5<1<5b[4:5],
1,2,3,4,
3,2h[4:1],{8}6,7,{4}8<4<8[4:5],
4,3,2,1,
2,3h[2:3],E5,E4,
E3,E2,E1,E8,
{2}E7h[4:1],3qq4[4:1],
{4},E7,,E6,
,E4,,E3,
E
