&title=野花香 (Haocore Mix)
&artist=Daily天利; EndCat-终猫
&first=0.06
&des=这不神奇吗?点击获取一个
&lv_5=14+
&inote_5=(215){1},,,,
{32}1b/8b<1b[4:4],2/7,3/6,4bpp3b[4:3]/5,,,,,
{1},
{4},Cf/E1,,
{32}8b/1b>8b[4:4],7/2,6/3,5bqq6b[4:3]/4,,,,,
{1},
{4},C/E5f,,
{32}6b/2b,3,4,5,,,,,8b-4b[8:1],,,,,,,,8/1,,,,,,,,Cf/B8/B1,,,,,,,,
{32}3b/7b,6,5,4,,,,,1b-5b[8:1],,,,,,,,1/8,,,,,,,,Cf/B8/B1,,,,,,,,
{32}2b/8b,3,4,5,,,,,7/1,,,,,,,,7b/1b,6,5,4,,,,,2-5b[8:1]/8,,,,,,,,
{8}6-1b[8:1]/2,,6/3-8b[8:1],,7-4b[8:1]/3,,2>4qq5<6b[4:4]/7,,E1f/C/B8/B1,,,,,,,,7bx<3b[4:3],,,,,,,,2bx>4qq5<6b[4:3],,,,,,,,7bx<4b[4:1],,,,Chf[32:1],,,,
{16}Cf/B8,,3,4,3,,8,,7/1,,6,,3,5,3,,8,,1,,2-6b[8:1]/8,,1b-5b[8:1],8,2,,1,,,,,,
{16}Cf/B1,,6,5,E7f/B7,,3,4,E2f/A2,,E8f/D8,,E4/B3f,,E1f/B8/B1,,C/B5,C/B4,C/B3,C/B2,C/B1,C/B8,C/B7,C/B6,Chf[32:1]/B5,,,,Cf/B5/B4/B8/B1/E1,,,,
{16}2b/6b,,3,,7/1,,8,,2b,3,4,5,8b,7,6,5,4/2-5b[8:1],,1,8,2b,,7,,6b,5,6,4,6,3,E7f/B7,,1b,,2,,8/3,,7,,5b,4,3,2,8b,7,6,5,1b-6b[8:1]*-5b[8:1]/4,,,,1b,,,,8-4b[8:1]*-3b[8:1]/7,,,,8b,,,,
{16}7b/3bx,,6,,2/8,,1,,7b,6,5,4,1b,2,3,4,5/7-4b[8:1],,8,1,7b,,2,,3b,4,3,5,3,6,E3f/B2,,8b,,7,,1/6,,2,,5b,6,7,8,1b,2,3,4,8b,,6,5,B7f/B8,,3,4,E2/B2f,,6,5,E1/B8f,,Cf/B5/B4,,
{16}2b/6b,,3,,4/6,,5,,3,6,3,5,3,4,3,2,3bx-5b[8:1],,,,1,,1,,2bx-5b[8:1],,8,,8,,Cf/B8,,E7/B7f,,,,8b/E5/B4,,,,B2f/E3,,E6/B5f,,Cf/B8/B1,,,,
{16}6b,4,5,,2b,1,3,,8b/Cf,7,6,5,2b/Cf,3,4,5,
{16}7b,,2,,5/3,,4,,6,3,6,4,6,5,6,7,6bx-4b[8:1],,,,8,,8,,7bx-4b[8:1],,1,,1,,Cf/B1,,2,,2,,5,,5,,1,8,2,7,3,6,4,5,4bqq2b[16:3]*pp6b[16:3],,,,,,,,A4f/D5/D4,,,,
{8},,2bx-4b[8:1],4,2,8b-6b[8:1],6bx-1b[8:1],8,4,,2bx<7b[4:1],,7b<4b[4:1],,4bx>1b[4:1],,E7/B6f,,8b-5b[8:1],5,8,1b-4b[8:1],4bx>2b[8:1],1,7,7,8,2,6b-8b[8:1]*-3b[8:1],,6b,,E2/B2f/E3,,8b-5b[8:1],5bx-7b[8:1],8,1,2b>5b[8:1],,8b,,6b-4b[8:1],4b,6,2b-5b[8:1],5,2,E8/B8f,,
{16}2/8,,3,,4/6,,5,,7b,5,7,5,6b,4,6,4,5b-8b[8:1],,,,1b-4b[8:1],,,,7bw3b[8:1],,,,A7f/E7/E8/B7,,,,1bx<6b[4:1],,,,6bx>3b[4:1],,,,3b,,,,C/B5/B4/E5f,,,,
{8}8,2,1bw5b[8:1]/8b,,1,,7b/3b,,6h[8:3],,4,4,3bx<8b[4:1],,5h[4:1],,,5b,2w6b[8:1]/1bx,,2b,,C/B4/B3/B7/B8,,4,5,3h[4:1],,7h[4:1],,,,2,8,,1,5h[4:1],,3,,2/4,2/4,3/5,3/5,4/6,4/6,7/5,7/5,
{16}8,7,6,5,8,1,2,3,
{32}7,6,5,4,3,2,1,8,7,6,5,4,3,2,1,8,7/3b,,,,,,,,
{4}2b/6b,1b/5b,8b/4b,
{8}E8/B7f,E3f/B3,E1/D1/E2/D2/E3/D3/E4/D4/E5/D5/E6/D6/E7/D7/E8/D8/Cf,,,Ch[8:1]f/B5/B4/B8/B1/E1f,,,
{16}2bx>5b[8:1],,1,,2/8-6b[8:1],,1,,2b-5b[8:1],,5bx-3b[8:1],,2,,6,,7b>2b[8:1],,2bx>5b[8:1],,7,,,,E1/B1f/E2,,,,1x,,1x,,
{16}7b<4b[8:1],,8,,7/1-3b[8:1],,8,,7b-4b[8:1],,4bx-6b[8:1],,7,,3,,2b<7b[8:1],,7bx<4b[8:1],,2,,,,E1/B8f/E8,,,,8x,2x,8x,,3b/5b,,3b/5b,,6b,4b,5b,,2b/4b,,,,1b-5b[8:1],,5bx-2b[8:1],,8,,7,,6,,5,,4b/2b,,,,A3/B3f/E3/E4,,,,7/8bw4b[8:1],,,,,,,,2/1bw5b[8:1],,,,,,,,3b/7b-3b[8:1],,,,5bqq4b[16:3]*pp6b[16:3]/7b,,,,,,,,A5f/D6/D5,,,,
{16}1bh[16:3]/5bx,,,,3b/7bh[16:3],,,,4b/Cf,,,E2/B2/B1f/6b,,,3b/A7/A8f/E8/D8/B7/B8,,
{16}5bh[16:3]/1bx,,,,7b/3bh[16:3],,,,8b/Cf,,,E6/B6/B5f/2b,,,7b/A3/A4f/E4/D4/B3/B4,,
{16}1bh[16:3]/5bx,,,,3b/7bh[16:3],,,,5b/Cf,,,E8/B7/B8f/3b,,,6b/A2/A1f/E2/D2/B2/B1,,
{16}8bh[16:3]/4bx,,,,6b/2bh[16:3],,,,4b/Cf,,,E2/B2/B1f/6b/Chf[16:1],,,
{8},8b-5b[8:1],5bx<7b[8:1],8b,3,2b>5b[8:1],1,2b/8b,,7b-4b[8:1],4bx-7b[8:1],7b,,1bw5b[8:1],,1b,,Chf[1:1],,,,,,,,
{32}1b,2,3,4,,,,,8b/Cf,7,6,5,,,,,8b/C,1,2,3,4,,,,,,,,,,,,
{16}4h[16:3],,6,,3h[16:3],,5,,2,3,4,5,8,7,6,5,4h[16:3],,3,,5h[16:3],,4,,4b-8b[8:1],3,2bx-6b[8:1],,4,,2,,7bV51b[8:1],,8,,1,,2,,3bV15b[8:1],,4,,5,,6,,7b,6,5,4,1b,2,3,4,6,5,6,7,6,8,6,1,
{16}5h[16:3],,3,,6h[16:3],,4,,7,6,5,4
,1,2,3,4,5h[16:3],,6,,4h[16:3],,5,,5b-1b[8:1],6,7bx-3b[8:1],,5,,7,,2bV48b[8:1],,1,,8,,7,,6bV84b[8:1],,5,,4,,3,,2b,3,4,5,8b,7,6,5,
{12}2x,4x,3x,7x,1x,8x,
{16}2bx-5b[8:1],,,,2/6hx[16:3],,,,4-1b[8:1]/8hx[16:3],,,,6hx[16:3]/4x,,,,2bx-5b[8:1]/8hx[16:3],,,,2/6hx[16:3],,,,4-1b[8:1]/8hx[16:3],,,,6hx[16:3]/4x,,,,2bx-5b[8:1]/8hx[16:3],,,,2/6hx[16:3],,,,4-1b[8:1]/8hx[16:3],,,,6hx[16:3]/4x,,,,6b-1b[8:1],5,4bx-8b[8:1],,6,,4,,
{12}5x,5x,5x,1x,1x,1x,
{16}7bx-4b[8:1],,,,7/3hx[16:3],,,,5-8b[8:1]/1hx[16:3],,,,3hx[16:3]/5x,,,,7bx-4b[8:1]/1hx[16:3],,,,7/3hx[16:3],,,,5-8b[8:1]/1hx[16:3],,,,3hx[16:3]/5x,,,,7bx-4b[8:1]/1hx[16:3],,,,7/3hx[16:3],,,,5-8b[8:1]/1hx[16:3],,,,3hx[16:3]/5x,,,,3b-8b[8:1],4,5bx-1b[8:1],,3,,5,,
{12}4x,4x,4x,8x,8x,8x,Chf[32:1],,,
{4},,,,,,,
{8}5h[4:1],3,2h[4:1],4,5,6,4,3,6h[4:1],4,3h[4:1],5,4,3,5,6,5/2,,2,,7/4,,7,,1/5,,1,,8/4,,4,,
{8}4h[4:1],6,7h[4:1],5,4,3,5,6,
{16}Cf/B5/B4,,,,Cf/B8/B1,,,,Cf/B5/B4/E5,,,,Cf/B8/B1/E1/B5/B4,,Chf[32:1],,
{16}2hbx[16:4]/8hbx[16:4],,,,,,2hb[16:4]/8hb[16:4],,,,,,2-5b[8:1]/8,,,,2/6,,,,,,2hb[16:4]/6hb[16:4],,,,,,2/6-1b[8:1],,,,6/4b,,,,,,6hb[16:4]/4hb[16:4],,,,,,6/4-1b[16:2],,,,8/4,,,,,,4hb[16:4]/8hb[16:4],,,,,,8bx<4b[4:3],,,,
{8}8/2,,2,,2,,3bx>7b[4:3],,3/5,,5,,5,,5,,6/4,6,6,6,3/5,3,3,3,
{16}6,4,5,3,6,5,7,4,Ch[16:3],,,,Cf/E1/B8/B1/B5/B4,,,,
{16}2h[16:3],,4,,3h[16:3],,5,,4,6,5,,7,8,6,1,5h[16:3],,2,,6h[16:3],,3,,4b-8b[8:1],3,2bx-6b[8:1],,4,,2,,7b<4b[8:1],,6x,8x,7x,,1,,2h[16:3],,,,5b-1b[8:1],6,7bx-3b[8:1],,5,,7,,2b,,8b,,4b/E7f/B7,,,,E1f/B1/6b,,B6/B5f,,Cf/B8/B1/E1,,6b,,3hx[16:3],,4,,2b>5b[8:1],,1,8,2,,7,,6/4,,4b-8b[8:1],3,2,,4,,1b,2,3,4,7b,6,5,4,2,,5,3,4,,1,,8bw4b[8:1],,1x,7x,8b,,,,
{32}7b/8hb[16:1],6,5,4,,,,,2b/1hb[16:1],3,4,5,,,,,8b/Cf,7,6,5,4,,,,Cf/B1/B2,,,,,,,,
{16}4hb[16:3],,3,,5hb[16:3],,4,,4b-7b[8:1],3,2bx-5b[8:1],,4,,2,,8hb[16:3],,1,,7hb[16:3],,8,,6b,4,5,,3,,6,,2b-6b[8:1],7,1b-5b[8:1],8x,2b,,1b,,4bw8b[8:1],,,,4b,,,,6b/2b,,5b,3,4bw8b[8:1],,,,4b,,,,Cf/B8/B1/B6/B3,,,,
{16}3hb[16:3],,7,,6hb[16:3],,4,,4b,3,2,1,7b,6,5,4,3hbx[16:3],,4,,5hb[16:3],,4,,2b-6b[8:1],8,1,7,2b,,8b,,2,,6,4,6,,1,,5,3,5,,1,2,3,4,5bx-1b[8:1]/1-5b[8:1],,,,5bqq4b[16:2]*pp6b[16:2]/1b,,,,A5f/D6/D5,,,Cf/B1,,,A1f/D1/D2,,
{8}8bx>8b[4:12],,,,,,,,,,,,,,,,E1/D1,,E2/D2,E3/D3,E4/D4,,E5/D5,,E6/D6,E7/D7,E8/D8,,C/E1,,,,
{4}4hb[4:4],,,,8hb[4:4],,,,2hb[4:4],,,,C/B5f,,,,
{8}2b-5b[2:1],,2,1,8,,7,,4b>1b[2:1],,,,,5b,,2b,
{8}7b-4b[2:1],,7,8,1,,2,,5b<8b[2:1],,,,,,,,
{8}1b/7bx,1,1,1,6b/2bx,6,6,6,3b/5bx,3,3,3,4bx/6b,6,6,6,
{16}5b,4,3,2,8b,7,6,5,3b,2,1,8,7b,6,5,4,
{1},
{4}E8/B7/B8f,E4/B3/B4/A4/A3/D4f,E6/B6f/B5,Cf/B5/B4/B8/B1/E1,
{16}7b-4b[8:1],,8,6,7,,1,,2b>5b[8:1],1,8b-4b[8:1],,2b,,8b,,1b<6b[8:1],2,3,,1,,5b-1b[8:1],,4,,5b/6,,7bV51b[4:1],,8,,7/1,,2,,3b-8b[8:1],4,5,,3b,,7,,1,2,3,4,5/6,,7,,2b>5b[8:1],,1,8,2b-7b[8:1],,6b-3b[8:1],,2,,6,,1b,,5,2,4,,3b,,
{32}7b,6,5,,1,,,,8b,7,6,,2,,,,
{16}5bx-1b[8:1],4x,3bx-7b[8:1],,5,,3,,8,,4b,7,5,,6b,,1b/5b,,2,4,3,,1b/5b,,3b-8b[8:1],4,2b,5,3b,,7b,,
{32}1hbx[8:1]/2b,3,4,5,,,,,8hbx[8:1]/7b,6,5,4,,,,,
{16}3,5,4,6,1,,8,,
{16}2bx-5b[8:1],,1,3,2,,8,,7b<4b[8:1],8,1b-5b[8:1],,7b,,1b,,8b>3b[8:1],7,6,,8,,4b-8b[8:1],,5,,4b/3,,2bV48b[4:1],,1,,2/8,,7,,6b-1b[8:1],5,4,,6b,,2,,8,7,6,5,4/3,,2,,7b<4b[8:1],,8,1,7b-2b[8:1],,3b-6b[8:1],,7,,3,,8b,,4,7,5,,6b,,
{32}2b,3,4,,8,,,,1b,2,3,,7,,,,
{16}4bx-8b[8:1],5x,6bx-2b[8:1],,4,,6,,1,,5b,2,4,,3b,,8b/4b,,7,5,6,,8b/4b,,6b-1b[8:1],5,7b,4,6b,,2b,,
{32}8hbx[8:1]/7b,6,5,4,,,,,1hbx[8:1]/2b,3,4,5,,,,,
{16}6,4,5,3,8,1,7,2,5bw1b[8:1],,,,,,,,,,,,,,,,
{8}Cf/B4,,Cf/B8,E1f/B1,E1/D1/E2/D2/E3/D3/E4/D4/E5/D5/E6/D6/E7/D7/E8/D8/Cf,,,
