&title=Flamewall
&artist=camellia
&first=0.09999999
&lv_5=15.1
&des_5=Fire NOissless
&inote_5=
(150){4},,,{16}4,5,3,4,
{8}2bh[4:1],E6,E7,E8,6h[4:1],E2,E3,E4,
{16}5<1[4:1],{8},{16}5/3,{8},4,{4}4h[4:1],C,
{16}2-4[8:1],{8},{16}2/8,{8},B6,{16}7x-5[8:1],{8},{16}7/1,{8},B3,
{4}4h[8:1],5h[8:1]/6h[8:1],{2}7>2[8:1],
{8}4h[4:1],E3,E2,E1,6h[4:1],E6,E5,E4,
{16}8<4[4:1],{8},{16}8/2,{8},3h[8:3],{4},C,
{16}5<7[8:1],{8},{16}5/3,{4},{16}4>2[8:1],{8},{16}4/6,{4},{24},6,
,{8}7b/5b,{12}3,4b/2b,{64},{192},{32}1b>8b[2:1]/8b<1b[2:1],E8/E2,B7/B2,B6/B3,{16}E6/E4,{4},,,{16},,,2,
2,4,3,6,6,4,
{8}Cf/5-8b[4:1],{4},,,{8}1/2,
{2}3h[4:1]/8h[4:1],{8}5bx/8h[16:1],7bx/4h[16:1],3bx/6h[16:1],5bx/2h[16:1],
4h[16:1]/1b-4b[4:1],{4},,,{8}8/7,
{16}4h[8:1]/6-1[8:1],{8},{16}3h[8:1],{8},2,4/3-8[8:1],2/5,{4}3/4,
{8}Cf/1x-4b[4:1],{4},,,{8}5/6,
{2}7h[4:1]/4h[4:1],{8}1bx/4h[16:1],3bx/8h[16:1],7bx/2h[16:1],1bx/6h[16:1],
8h[16:1]/5b-8b[4:1],{4},,,{8}1b/2b,
{32}7b/8bh[16:3],6,5,4,{16},,{32}2b/1bh[16:3],3,4,5,{16},,{24}7b-3[8:1],8,7,8,7,8,{4}7b,
{16}6-1[8:1],5,7,4,{8}6/5,2-4-8[4:1],3,2/8,6,5,
{16}3-8[8:1],4,2,5,{8}3/4,7-5-1[4:1],6,7/1,3,4,
{16}2v5[8:1],1,3,1,{8}2,8b,{16}7v4[8:1],8,6,8,{8}7,1b,
{16}3,3,5,5,4,4,{8}6,5/6,6/7,7/8,1/8,
2,{16}3/1,3/1,,4<7[16:1],5,3,{8}4,1-5[16:1],{16}8,8,{8}1,
7,{16}6/8,6/8,,5>2[16:1],4,6,{8}5,8-4[16:1],{16}1,1,{8}8,
2b/5bx,{16}2,4,{8}2,2/1,7b/4b,{16}7,5,{8}7,7/8,
{16}1,1,3,3,5,5,7,7,{32}1,2,3,4,5/8-4b[16:1],1,2,3,4bx/8bx,5bx/1bx,6bx/2bx,7bx/3bx,{8}8bx/4bx,
(300){4}3/5-8b[8:1],3,3/7bxv4b[8:1],3,
2/5bxp1b[8:1],2,2/8bxv5b[8:1],2,
6/4bx-1b[8:1],6,6/2bxv5b[8:1],6,
7/4bxq8b[8:1],7,7/1bxv4b[8:1],7,
3/5bxp1b[8:1],3,2/8bxv6b[8:1],2,
5/1bx-4b[8:1],5,7/3bxp7b[8:1],{16}A6,E6,B5,B4,
{4}E4f,{16}8x,7,6,5,4,3,2,1,8,7,6,5,
(150)4b/8b,{8},{16}3b/7b,{8},2b/6b,4/5-1V75[4:1],6,{16}5/4,3,{8}3,
{16}2,3,4,6,6,4,{8}5,8/1-5V31[4:1],2,{16}1/8,7,{8}7,
{16}6,7,8,2,2,8,{8}1,{16}6,4,5,5,6,4,5,5,
6,4,7,3,8,2,{8}1h[8:1],{16}2,3,4,5,8,7,6,5,
4/3,2,1,8,7x/3x,8,1,2,{8}4b/3b-8>4[4:1],2,{16}4/3,5,{8}6,
{16}7,7,5,5,2,1,8,7,{8}5/6v1<5[4:1],7,{16}5/6,4,{8}3,
{16}2,2,4,4,3,5,4,6,{8}7qq4[16:3],{16}8,8,,1,{8}1,
2qq5[16:3],{16}7,7,,6,{8}6,{16}7,7,5,6,2,2,4,3,
{32}5,6,7,8,1,2,3,4,{4}5/Cf,{16}8,7,{8}8,6/1,7/8,
{16}1/2-5[8:1],3/8,{8}7/4,2/1,B8/B7,{16}1,2,{8}1,3/8,2/1,
{16}8/7-4[8:1],6/1,{8}2/5,7/8,B2/E3,{16}8b,4,7,3,6,2,5,1,
4,8,5,1,6,2,7,3,{24}8,4,8,4,{48},{16}7,3,7,{24}2,6,2,
{8}5-1[16:1],4/6,{4}5,{8}2/1,{16}7<4[8:1],8,,8,{8}7,
1,{16}2>5[8:1],1,,1,{8}2,{16}6,7,{8}8,{16}8/1h[4:1],7,6,5,
{8}4,2-6b[16:1]/3-8b[16:1],4/1,2/3,{16}7,5,7,C,7,5,7,B1,
6,4,6,C,5,3,{8}5h[8:1],{16}2,4,2,4,3,5,3,5,
4,6,4,6,4,3/5,{8}6h[16:1]/2h[16:1],{16}8,4,8,B6,8,4,8,B2,
8,4,8,B7,8,4,{8}8h[8:1],{16}5,1,5,7,5,1,5,3,
5,1,5,7,5-1[16:1],1,{8}5h[8:1],C,{16}7,6,{8}5,{16}2/1h[8:1],3,
{8}4-1[16:1],6/5,4,7,{16}8qq4[4:1],{8},{16}1,{8}1,{16}3,2,
{8}1-5[16:1],2,1/8,7,6,{16}2/1h[8:1],3,{8}4,{16}7/8h[8:1],6,
{8}5-8[16:1],3/4,5,2,{16}1pp5[4:1],{8},{16}8,{8}8,{16}6,7,
{8}8-4[16:1],7,8/1,2,3,{16}3,4,{8}5/2,{16}6,5,
{8}4/7,2-6-3-8[4:1],5/4,2/8>4[4:1],{4}5,A7,
{8}B5,B6,B7,B8,{16}2,1,2,1,{24}2/8b,3,4,5,{16},{48},{16}7,
8,7,8,{24}7/1b,6,5,4,{16},{48},{24}1,2,3,6,{48},{16}6,{24}2,3,4,7,{48},{16}7,
{32}1,2,3,4,7,6,5,4,8,B8,C,B4,{16},,{4}4x/7-5-8-4[2:1],{8}3,3-1[8:1],
{2}3,{4}4/1-3-8-4[2:1],{8}5,5-7[8:1],
{2}5,{8}5/4,3,5/4,6,
{4}4/5pp1[8:3],{8}2>4[8:1],1,{4}2,{8}5/6,{16}6,7,
{8}8v3[8:1],1,{4}8/7,{16}6b/5b,5b/6b,{8}6b/5b,{16},4b/2b,4b/2b,4b/2b,
{24},A1,A8,A7,{12}A6,5h[16:1]/3h[16:1],{24},{8}4/2,{16}2b/1b,1b/2b,{8}2b/1b,{16},8b/6b,8b/6b,8b/6b,
{24},A1,A2,A3,{12}A4,{24}6,5,6,5,{12}6,{16}4b/2b,4b/2b,{8}4b/2b,{16},7b/8b,7b/8b,8b/7b,
{24},7,6,5,{12}4,1/2,{24},{8}3/8,{12}6b/E5,7b/C,{6}8b/E1,{12}3bqq8b[16:11]/4b<7b[6:1],4b/3b,
{2}3b/4b,{24}A6,D6,A5,D5,A4,D4f,{4},{24}1b<8-6>4b[16:3],
2,3,7,6,5,{4}1b,{16}6x,5x,6,4,6,5,6,7,
6,5,6,4,6,3,6,2,{8}2/7-4[16:1],{16}8,8,{8}7/1-5[16:1],2,
{4}1/6b-1b[16:1]*-3b[16:1],6b,{16}2,1,4,5,{24}7b,6,5,8,{48},{16}8,
7,8,5,4,{24}2b,3,4,1,{48},{16}1,{8}2/8,{16}5,5,{8}4/6,{32}4,3,2,1,
{8}8bv5<1b[16:3],6b/4b,{16}2/8,3,{8}4,{16}3x,4x,3,5,3,4,3,2,
3,4,3,5,3,6,3,7,{8}7/2-5[16:1],{16}1,1,{8}2/8-4[16:1],7,
{4}8/3b-8b[16:1]*-6b[16:1],3b,{16}7,8,6,1,{24}7,6,5,4x,{48},{16}4x,
2,1,3,8,{24}2,3,4,7/5,{48},{16}5/7h[8:1],,3,{8}4b/2b,{16}6,5b/7b,,1b/8b,
{2}7b-4b[16:1]/2b-5b[16:1],{4}C/1b-3[16:1],{8}5/1-5[16:1],{16}6,6,
{8}1-3[16:1],{16}4,4,{8}1-5[16:1],{16}7,7,{4}8/1-3-8[4:1],{16}1/4,5,{8}6,
7-4[16:1]*-3[16:1],5/6,{4}7,8b-6[16:1],{8}4/8-4[16:1],{16}3,3,
{8}8-6[16:1],{16}5,5,{8}8,{16}2,2,{24}8,7,6,1,2,3,7,6,5,2,3,4,
8,7,6,5,4,3,2/7,6,5,4,3,2,{4}1/7b-5[16:1],{8}3/7-3[16:1],{16}2,3,
{8}4/7-5[16:1],{16}1,2,{8}3/7-3[16:1],{16}1,1,{8}8/7-5-8[8:1],2,{4}7/1,
{24}2,4,2,4,2,4,3,5,3,5,3,5,{2}3<1[2:1],
,6>8b[4:1],
{16},,{24}2,3,4,5/8,7,6,5/1,{16},{48},{16}8,8,6,6,4,4,2,2,
{24}1b,2,3,7b,6,5,2b,3,4,8b,7,6,1<3[4:1],5,1,5,1,5,{16}1,,,{64}1b,B1,C,B5,
{2}A5,{8}2/1,{16}6V84[8:1],5,{8}7,6/5,
{16}3,3,2,2,1,1,{8}8/7-4-8[8:1],6,7,2,8x/4,
{16}1,2,3,4,8/5,1,2,3,{8}2/4-8-5[8:1],{16}3,3,{8}4,2,
6-2-7[8:1],{16}4,4,{8}6,3,{16}4,5,4,5,2,1,4,5,
3,4,3,4,{8}8/7,6/1,7/8,{16}3V15[8:1],4,{8}2,3/4,
{16}6,6,7,7,8,8,{8}1/2-5-1[8:1],3,2,7,1x/5,
{16}B8,B4,E6,E2,E8,E4,B5,B1,(300){4}3/7b-4b[8:1],3,
2/5bq1b[8:1],2,4/8bv3b[8:1],4,
2/1b-5b[8:1],2,6/3bv1b[8:1],6,
7/2bv5b[8:1],7,(150){24}8,7,6,2,3,4,1-5b[16:1],5,1,5,1,5,
{8}Cf/1>1[2:1],{4},,,{8}6b/5b,
{2}7bh[4:1]/4bh[4:1],{8}C,{4},{8}2b/1b,
{2}3bh[4:1]/8bh[4:1],{16}6,5,7,4,6,5,8,3,
{32}7>4[4:1],6,5,4,{16},,{4}A7f,{12}6,6,6,5/7,7/5,5/7,
{2}4/8qq5[2:1],{4}3h[8:1],{8}2,4/2,
{2}5/1q4[2:1],{4}6h[8:1],8h[8:1],
{16}5h[4:1]/2h[4:1],{4},,{16}7bh[16:3]/4bh[16:3],{4},{24},{12}5bh[6:1]/2bh[6:1],
{4},{16},,,{32}1,2/8,7/3,4/6,{16}5,{8},{4}1,
{6}2,3,4,5,{16},,{24}6,{4},{16},,{24},6,
5,4,3,{1},,{64},{192},(185){32}1x/B8,
2/B7,3/B6,4/B5,{16},,{32}8x/B1,7/B2,6/B3,5/B4,{16},,{32}1x/B8,2/B7,
3/B6,4/B5,{16},,{32}8x/B1,7/B2,6/B3,5/B4,{16},,7b,8,7,8,7,8,7,8,6b,
1,6,1,6,1,6,1,8b,3,8,3,8,3,8,3,5b,
1,5,1,5,1,5,1,8b,4,8,4,7b,3,7,3,6b,
2,6,2,5b,1,5,1,4,8b,5,1b,6,2b,7,3b,8,
4b,1,5b,8,4b,7,3b,6b,4b,6b,4b,1b,2b,1b,2b,7,
8,6,1,7,8,6,1,4b,3b,5b,2b,4b,3b,5b,2b,7,
5,6,4,7,5,6,4,7b,6,5,4,8b,7,6,5,1b,
8,7,6,2b,1,8,7,5,6,5,7,5,8,5,1,4,
3,4,2,4,1,4,8,6-1[16:1],,6,,3-8[16:1],,3,,7-4[16:1],
,7,,2,,2,,3,5,2,1,4,5,8,6,3,
4,1,8,5,7,4,,7-4[16:1],,7,,2-5[16:1],,2,,6-1[16:1],
,6,,3,,3,,2,8,3,4,1,8,5,7,2,
1,4,5,1-3[16:1],8,1,,1<7[16:1],,5,5,1,,4,4,5-7[16:1],
,2,2,5>3[16:1],,1,1,5,,1,8,7,6,5,4,3-8[16:1]/8-5[16:1],
2/7,1/6,,3/8,,,,6/4,,5,3,7,3,5,,2/4,
,3,5,1,5,3,{24},8/2h[16:3],7,6,5,{12}4,{16},,{24}4/1,2/5,3/6,{12}4h[24:7]/7h[6:1],
{16},,,{48},{24}1,2,3,4/1,5/2,6/3,7/4,{2}8b/5bqq1b[2:1],
{1},{4},{16},,,5/4,
,5,,6/3,,6,,5/3,
,3,,2/5,,2,,5/6,,5/6,,7/8,,1/8,,{32}1b,2b,
{16}3b,{32}8b,7b,{16}6b,{32}2b,3b,{12}4b,{16},{48},{24}7/1h[8:1],6,5,4,{16},{48},{24}1h[8:1]/7>4[48:13],6,5,4,{16},{24},{16}7,
,5,,5,,5>7[4:1],,,,5/7,,6,,6,,6,
,5/4,,7h[8:1],,2,3,4,{24},3/7,2,1,8,{16},,{24},6b/5b,,4b/7b,
{16},,{24}4b/3b,,5b/2b,{4},{16},6/2,,5/1,,8/4,,7h[8:1]/3h[8:1],
,,,7-3b[16:1]/3-7b[16:1],8/4,1/5,{8}2/6,{4},{16},{48},{24}5,6,5,7,
{16},,,{48},{24}4,3,4,{48}2,{16},,,{48},1/8-4[16:1],{24},{16}7/2,6/3,,8/1,,2-6[16:1],
,3/1,,2,,{32}8,B8,C,B4,{16},,{64},{192},{24}4,5,4,6,{16},{48},{24}4,3,4,2,
{16},,,7,8,7,8,7,6,5/8,1,2/6,5,4/8,1,2,
{24}4/3,5,6,7/8,1,2,3,4/5,6,7,8/1,2,{6}3/5q1[8:1],{24}1b,2,3,4,{16},{24},{16}4,
,4,,6/4,,6/4V28-3[4:1],,,,4/5,,6,,5,,7v4b[8:1],
,4V68b[8:1],,7/8,,1,2,3,4,3,2,1/5,,,{24}7,6,5,
{8}4/1,{24}2b/3b,,1b/4b,{4},{16},6/5,,6/5,,4/3,,2/1>2-4b[8:1]*<8-6b[8:1],
,,,A1,{4},{16},E5,,C,,,{24}7,6,5,
4/B2/B1,{16},,{24},1x,2,3,{48}4/B6/B7,{16},,,{48},5/3,{16},{24},{16}5/3,,3/5<8[8:1],,1,
,1,2,3,4,1,2,3,{12}4/1,{24}2b,3,4,5,{16},{48},{24}7b,6,5,4/2,
{16},,,7b/8b,7b/8b,8b/7b,,2b,5,4,5,4,5,8b,5,4,
5,4,{24}5,,1b,2,3,4,7b,6,5,{2}8b/4b-8b[4:1],
{4},{16},3b/2b,,4b/1b-4b[8:1],{4},{16},,,6b/5bh[16:1],
,7b/8bh[16:1],,2b-5b[16:1]/1b-6b[16:1],,8b/3b,,2b/1b,{4},,,{16},8/1,
,6,5,7,3,4,2,7h[8:1],,1,
3,2,8,6,7,8-5b[16:1]/1-4b[16:1],,{48},{24}8bx/1bx,{4},,,{16},6b/7b,
,5b/8b-5b[8:1],{4},{16},,,3b/4bh[16:1],
,2b/1bh[16:1],,7b-4b[16:1]/8b-3b[16:1],,1b/6b,,7b/8b,{4},,,{16},{48},{24}6/5,
{16},{48},{24}2/4,,3,,4,,5/3,,4,,5,,6/8,
,7,,6,,5/7,,6,,5,,4bx/2bx,,1,,1,,2b/4b,,5,,5,,2/4,
,3,,4,,5/3,,4,,5,,6bx/8bx,,1,,1,,8b/6b,,5,,5,,8/6,
,7,,6,,5/7,,6,,5,,4/3,,E5,E6,E7,,3/4,,E3,E2,E1,,7x/8x,
,6,5,4,,8/7,,1,2,3,{48},(175),6,{64},,,{192},{32}6,{16},5/7,(165){48},3,{16},{24}3,,{16}4/2,(160){48},1/8,{16},{24}8/1,
,{16}1/8,(120){48},3,{16},{24}4/2,,{16}5/3,(13.33)6bh[#4.501129],,,,(150)5qq1[2:1],{4},{16},6,
7,8,{4},,{16},6v4[8:1],,4<1[4:1],
,6,,3h[8:1],{4},{16},4,,4-7[8:1]*qq1[2:1],{8},A4,
{4},,{16},,,2>5[8:1],{4},{16},,,8<5[8:1],
{4},{16},,,4xpp8[2:1],{4},{16},3,
2,1,{4},,{16},6,,6-8-5-1[8:3],
,5,,4,,B4,,B3,,B2,,8-5[8:1],{8},8q4[4:1]*p5[2:1],
{4},,,{16}2/3,4/1,,8/1,
{8}2/7,{16}7/6,5/8,{24},5bx-8b[16:1]/4bx-1b[16:1],3/6,2/7,{12}1/8,{16},,,2,,2>5[16:1],{8}1,
{16}1,2,{24},6,7,{16}8,1-5b[16:1]*-4b[16:1],1,1,,D1/D2,,7,,7<4[16:1],{8}8,
{16}8,7,{24},3,2,{16}1,8-4b[16:1]*-5b[16:1],8,8,,D8/D1,,2,2,4,4,6,
6,8,8,{32}1/5b,2,3,4,5/1b,6,7,8,1/5b,2,3,4,{16}5/1b,,7,7,5,5,3,
3,1,1,{32}8/4b,7,6,5,4/8b,3,2,1,8/4b,7,6,5,{16}8b/4bh[8:1],,8-3b[16:1],7,1,7,8,
,5/6,,1-6b[16:1],2,8,2,1,,4/3,,{48},{24}6<1[12:1],5,4,5,4,3,2h[8:1],
{16},,,{48},{24}2<7[12:1],3,4,3,4,5,6h[8:1],{16},,,8,5,5,5,7,
5,5,5,6,5,5,5,4,4,4,4,1,4,4,4,2,
4,4,4,3,4,4,4,5,6,7,8,1,5,2,4,1,
5,2,4,3,3,3,3,2/4,,B1/C/B5,,8,4,7,5,8/4,
,7/5,,{48},{24}7,5,6,5,6,5,7,4,5,4,5,4,6/3,{16},2,3,4,
,7/8h[8:1],6,5-8[16:1],,3/4,,5,,2,,1pp5[4:1],{8},{16}8,8,
,6,7,8-4b[16:1],,7,,8/1,,2,,3,,7/8h[8:1],6,5,
,2/1h[8:1],3,4-1[16:1],,6/5,,4,,7,,8qq4[4:1],{8},{16}1,1,
,3,2,1-5b[16:1],,2,,1/8,,7,,6,,6,5,4/7,
,3,4,5/2,,7-3-6-1b[4:1],,4/5,,7/1<5b[4:1],,4,,,,A2,
,,,1,2,3/5<8[16:1],,4,3,2,,1,1,1,1,{32}2b/8b,3/7,
4/6,5x,{16},,8,8,8,8,{32}7b/1b,6/2,5/3,4x,{16},{64},,{96},{24}7b,6,5,1b,2,3,8b,7,
6,1b,2,3,{64},{192},{32}6b,5,4,3,2,1,8/2,7/3,{16}6bh[8:1]/4bp3[4:1],{4},{16},6,7,8,
,7,6,5,,4/3>8[8:1],,2/5,,4/3,,5,,6,,8/7,
,7/3,6/2,5/1,{24}6,7,8,1,2,3,{16}4,1bx/5bx-1[12:1],,,,6/5,7,8,
,2,3,4/8,,7,3,7-5-8-4[4:1],3,7,,{32}7/8,1,2,3,{16}4-1b[16:1],,,,4bx/1b,
,2,3,1,4,8,5,7/6,,3b/1b,2b/4b,3b/5b,{8},{16}5b/7b,
6b/4b,{24}5b/3b,,2,4,2,4,2,{48}7b/8b,6,{96},{32}5,{16}4,{32}2b/1b,3,4,5,{16}8b,7b/1b,6b/2b,{8},{16}3b/5b,
2b/6b,{8}1b/7b,{16},{32}8b/4,7,6,5,1b/4,2,3,4,{16}5/1,,8b/7b,6b/1b,7b/8b,{8},{16}4b/3b,
2b/5b,{8}4b/3b,{32}7,6,5,4/8,7,6,5/1,8,7,6/2,{16},,{64},{192},{24}5b/8b,,7b/5b,,6b/5b,,5b/4b,
,5b/3b,,5b/2b,,5b>1b[12:1]/1b<5[12:1],{4},{16},,,{32}7b/1b,6/2,5/3,4,{16},{32},2b/8b,3/7,4/6,
{16}5,{32}8<4b[16:1],7<3b[16:1],6>2b[16:1],5>1b[16:1],{16},{32}8bx,7b,6bx,5bx,{16},Cf,,,,5b-8-6-1b[4:5]*-2-4-1b[4:5],{1},{4},,{16},,,C,
,,,4<8[4:1],{4},{16},,,4>8[4:1],
{4},{16},,,C,,,{24}8,7,6,
5,1,2,3,{6}8/4b-8b[12:1],{16},{24},{16}4b/C,,,,7/5,,6-8[16:1],4,6,
3,6,,2/4,,3-1[16:1],5,3,6,3,,5,5,4,6,3,
3,4,{24}2,5,6,7,8,1,2,3,4/Cf,{16},,{64},,{32}5,6,7v4[8:1],{16},,{32},7/8,{16},,3,
2,1-5[16:1],{8},1/8,{16},3,{8}2/4,{32}7/8,6,5,4/2,{16},{32},2/1,
3,4,{16}5/7,{32},8,7/1,6/2,5/3,4-8[16:1],{4},{16},,4/3h[16:3],,4,4,2/5h[16:3],
,3,3,6/2h[16:3],,7,7,3/8h[16:3],,4,4,7/3h[16:3],,5,5,1/7h[16:3],
,4,4,6/2h[16:3],,8,8,4b/8b,{8},{16}6/5,7/4,,{32}8,1,8,1,8,1,
{16},,3/4,2/5,,{32}1,8,1,8,1,8,{16},,2/3,1/4,,{32}8,6,8,6,8,6,
B8,C,{16}B4,,2,5,1,4,8,3,7/3v8[16:1],,2,,3,2-5[16:1],2,
,1,2,1v4[16:1],,8,8,1/7-3[16:1],,8,6v1[16:1],7,,5,6,5-8[16:1],
,3,6,5/4V27[8:1],{8},{16}6/4,4/6,{8},{16}5-1[16:1],5,{4},{16},B2,
B1,B8,B7,B6,B5,B4,B3,B2,,{48},{24}1h[24:1]/E6/D6,,3h[24:1]/E7/D7,,{8}5xh[24:1]/E8/D8,
{24},8h[24:1]/E4/D4,,6h[24:1]/E3/D3,,4xh[24:1]/E2/D2,{16},{48},{24}8,4,8,4,8,4,8,4,8,4,{32}8b,1,2,3,5b,6,7,8,
5b,4,3,2,1/8b,7,6,5,4,3,2/5b,1/4b,8/3b,2b/7,{16}6x,1x,6x,1x,7,8,6>3[16:1],1,7/8,
,6/2,,2,1,3<6b[16:1],8,2/1,,3/7,,7V51b[8:1],,1,8,7/1,
,3,3,2/4q1[16:1],,7/5,,4/6,,,,6<2[16:1],5,7,5,6,
,3x/5,,2,1,4v1b[16:1]/8v5b[16:1],7/3,6/2,,4b/8b,,2,2,8,8,4,
4,6,6,{32}1b,2,3,4,7b,6,5,4,{16}B3,B2,B1,,{48}7,,8,,7,,{16}1,6,1,
6,{48}2,,5,,2,,{16}4,3,4,3,4<8[8:1],,1/2,,4,3,2,1,2,
3,4,5,4/8,3/7,2/6,1/5,4h[8:1]/8h[8:1],,,,7/5,7/4,7/3,7/2,{32}7/1,2,
3,4,{16}6,7,2/4,2/5,2/6,2/7,{32}2/8,7,6,5,{16}3,4,7b-4b[16:1],{8},7b/1b-5b[16:1],
{16},1b/6b-2b[16:1],,4x,3x,2x,1x,8,4,8,,1-3[0.2##0.1],4,1,4,1-4[0.2##0.1],
5,1,5,1-5[0.2##0.1],6,1,6,7/8,7/8,7/8,,6,4,8,2,4,
8,6,2,{32}6b/8bh[32:3],5,4,3,{16},{32},2b/1bh[32:3],3,4,{16}5,{32}8,7/1,6/2,5/3,{16}4,7,6,5,4/1,
2,3,4,1,5,1,5,8,4,8,4,7,7,7/5,5,5/3,
3,3/1h[8:1],,{32}8,7,6,5,8,1,2,3,8,7,6,5,8,1,2,3,{16}4,8-6b[0.2##0.1],5,8,5,
8-5b[0.2##0.1],4,8,4,8-4b[0.2##0.1],3,8,3-7b[0.2##0.1]*-1b[0.2##0.1],,,,6,8,5,1,4,
2,1,3,8,4,7,5,7-2b[0.2##0.1]/6-1b[0.2##0.1],,,,3,3,5,5,7,
7,1,1,{32}2,3,4,5,1,2,3,4,8,1,2,3,7,8,1,2,{16},{32}6/5,7/4,8/3,2/1,{16},{32}3/4,2/5,
1/6,7/8,{16},{48}8x/1x,7/2,6/3,4/5,{24},{4}2b/1b,{16},,,6<1[8:1],,,,6/1,
2,3,4,5>1[8:1],,,,1/5,8,7,6,5-2[16:1]*-3>2[16:1],,,,5-8[16:1]*-7>8[16:1],
,,,5-1b[16:1],,,,5/1,2,3,4,5<1[8:1],,,,5/1,
2,3,4,5/2<6[8:1],,,,4x,3x,2x,,{32}8/4,5/1,6/2,7/3,8/4h[8:3],1,2,3,,5,
6,7,8,1,2,3,,5,6,7,{16}8/4,7/3,6/2,5/1,8h[16:1]/4h[16:1],,4x/8x>2[16:1],,,,8-3[16:1],
5,5,,8-4[16:1],,6,6,8/7,,5/1,,2b-5b[16:1]/6b-1b[16:1],,,,2b-7b[16:1]/6b-3b[16:1],
,,,6bv1b[16:1]/2bv5b[16:1],,,,A2/D3/A6/D7,,,{32},7b/8b,6,5,{16}4h[16:3],{8},{16}3,
3,4,4,{32}1b/6b,2,3,4h[32:5],{16},,5,5,6/4,{24}6/4,,7h[8:1],{16},,{8}6h[8:1]/8h[8:1],
{16},1/5,,{48},{24}3h[8:1],{16},,{8}4h[8:1]/2h[8:1],{16},1/5,,1,8,2,7,{32}1b/E7,E6,
{16}E5,3,3,8,1,7,2,{32}8b/E3,E4,{16}E5,6,6,5b-1b[0.2##0.1],,7b-4b[0.2##0.1],,2b-6b[0.2##0.1],
,5bv8b[0.2##0.1],,{48},{24}4,3,2,1,8x/A7,A6,A5,,3,4,3,4,3,{16},{48},{24}A2/1bx<6b[0.1333##0.0667],A3,A4,A5,
{16},6x,6x,{32}4/6,3,2,1,{16}5,5,{32}3/5,2,1,8,{16},,{32}6,5,4,3,2,1,8,7,6/1,2,
3,4,5,6,7,8,1/5,2/6,3/7,4/8,{16}5h[8:1]/1h[8:1],,{32},4bh/8bh,3bh/7bh,2bh/6bh,{16}1bh/5bh,,7-4b[0.2##0.1],7,2-5b[0.2##0.1],2,8-6b[0.2##0.1],
8,1-5b[0.2##0.1],1,7x-4b[0.2##0.1],7x,8-3b[0.2##0.1],8,5q1b[0.2##0.1],5,2q6b[0.2##0.1],{24}2,,6x,7,8,1,2,3,4/1x,
8,7,6,5,4,3-7b[12:1]/1-5b[12:1],{16},,,{48},{24}3b/1b,{16},,,{64},,{32}8b<1[8:5],{4},,{16},,,{32},1bs5[4:3]*-5[4:3],
{16},,,{32},A1f,{4},,,{16},,{32}E8,
B8,B1,E2,{4},,,{16},7/8,
,{32}7/1,6,5,4,{16}1,1,{32}2/8,3,
4,5,{16}8,8,{32}7/1,6,5,4,{16}3/8,,{32}2,3/1,4/8,7h[32:3]/5h[32:3],{16},,6,4,8,2,6,
8,4,{24}2,6,7,8,1/2,3,4,5/8,1,2,3,{48}4/8,5/1,6/2,7/3,8/4,1x-5[16:1],{16},{24},{16}4/3,,2/1,
,7/8,{24},{48}8,1,2,3,{16}4,5/6,{24},{48}1,8,7,6,{16}5,4/3,,5x-1[16:1],,8/7,,6/5,
,3/4,{24},{48}4,5,6,7,{16}8,1/2,{24},{48}5,4,3,2,{16}1,8/7,,6x,1,6,1,{32}7,6,
5,4,{48}3/1,8,7,6,5,4,3x,{24},{16}8,3,8,{32}2,3,4,5,{48}6/8,1,2,3,4,5,8,{24},{16}7,8,7,1,
6,1,6,8b-3b[16:1]/7b-4b[16:1],,3b/4b,,7b/8b,,1bx/6bx,,7,7,5,5,3,
3,1,1,{32}7/3,6/2,5/1,4/8,3/7,2,1,8,7/3,6/2,5/1,4/8,3/7,2,1,8,{16}7,1,3,3,5,
5,7,7,{32}2/6,3/7,4/8,5/1,6/2,7,8,1,2/6,3/7,4/8,5/1,6/2,7,8,1,{16}2b-5b[0.2##0.1],,8b-4b[0.2##0.1],,3b-7b[0.2##0.1],
,6bv1b[0.2##0.1],,4bp8b[0.2##0.1],,7b-5b[0.2##0.1],,1b-5b[0.2##0.1],,1x/8x,,{32}7,6,5,4/1,2,3,4,5/1,8,7,
6,5,4/2,1,8,7,6,1/5,8,7,6/2,5x,2,5x,2p6b[0.2##0.1],5,2,5,{16}2,,3-1b[0.2##0.1],3,7-5b[0.2##0.1],7,3-1b[0.2##0.1],
3,7-5b[0.2##0.1],7,4-2b[0.2##0.1],4,5x-1b[0.2##0.1],5x,3x-8b[0.2##0.1],3x,4-6b[0.2##0.1],4,7-3b[0.2##0.1],7,8-4b[0.2##0.1],8,1-5b[0.2##0.1],
1,2-6b[0.2##0.1],2,4-7b[0.2##0.1]*-1b[0.2##0.1],,B4,,2x-5b[0.2##0.1]*-7b[0.2##0.1],,B2,,6,6,6-1b[0.2##0.1]*<1b[0.2##0.1],,6>3b[0.2##0.1]*-3b[0.2##0.1],
,A6,,2,2,2-5b[0.2##0.1]*>5b[0.2##0.1],,2<7b[0.2##0.1]*-7b[0.2##0.1],,A2,,5x,5x,3/5,3,1/3,
1,7/1,7,{32}8,7,6,5,4/1,8,7,6,5/2,1,8,7,{16}6/2,,8-3b[0.2##0.1],8,7-4b[0.2##0.1],7,8-3b[0.2##0.1],
8,7,,{48}6/1h[16:1],5,4,{16},{48}5/1h[16:1],4,3,{16},{48}2/8h[16:1],3,4,{16},{48}3/7h[16:1],4,5,{16},1-6b[0.2##0.1],1,2-5b[0.2##0.1],2,1-6b[0.2##0.1],
1,2,,{48}3/8h[16:1],4,5,{16},{48}4/8h[16:1],5,6,{16},{48}7/1h[16:1],6,5,{16},{48}6/2h[16:1],5,4,{16},{32}3,4,3,4,3,4,{16}3bx/E3,{32}6,5,
6,5,6,5,{16}6bx/E7,{32}2,4,2,4,2,4,{16}2bx/E2,{32}7,5,7,5,7,5,{16}7bx/E8,{32}1bx/8bx,2,3,4,5/8,7,6,5,4,3,
2,1,8/4,3/7,{16}2/6,{48}1b,2,3,4,5,{24}6,{16},{48}8b,7,6,5,4,{16}3,1/2,,{32}8b/1b,7,6,5,4/1,2,3,4,5,6,
7,8,1/5,6/2,{16}7/3,{48}8b,7,6,5,4,{24}3,{16},{48}1b,2,3,4,5,{16}6,8/7,,{48}1/5bh,2,3,4,5,6,7/3bh,8,1,2,3,4,5/1bh,6,7,
8,1,2,3/7bh,4,5,6,7,8,1bh,2,3,,8bh,7,6,,2bh,3,4,,7bh,6,5,1bh,2,3,4/8bh,7,6,{8}5h[8:1]/2h[8:1],{16},,,{32},{64}1bh/8bh,7bh/2b-4v5-7-5v4-2b[64:177],
6bh/3bh,4bh/5b-7-1-7<6-2b[64:175],{1},,,{16},,{32},A2,
B2,C,B6,{16}A6f,
