&title=dear
&artist=Lol
&first=1.063
&des=KAFU
&wholebpm=125.000
&lv_5=13
&des_5=kafu
&inote_5=(125)
{16}3h[16:2]/5h[16:2],,,4q5[16:6]/3,
,,,2,
,,,,
,,,,
{16}4h[16:2]/6h[16:2],,,5p3[16:6]/6,
,,,7,
,,,,
,,,,
{16}2h[16:2]/5h[16:2],,,4/3pp8[16:8],
,,,8,
,,7,,
6,,5,,
{16}4-8[16:4],,,5h[16:4],
,,,,
5^7[24:2],,,,
1,,,,
{16}2x-6[16:2],,,,
8h[16:3],,,5xv3[16:2],
,,8x,,
7,,6,,
{16}5x-8[16:2],,,,
4h[16:3],,,1xv6[16:2],
,,4x,,
3,,2,,
{16}1x-5[16:2],,,,
7h[16:3],,,4x-8[16:2],
,,7x,,
6>8b[16:14],,5,5,
{16},,,,
,,,,
,,,,
,,,,
{16}7,,4,6,
5,7h[16:2],,8,
,,17,,
1,6,2,7,
{16}3h[16:2],,8,2,
,1,,82,
,,7h[16:2],,
6h[16:2],,5h[16:2],,
{16}4,,3,4,
2,3h[16:2],,1,
,,82,,
73,,64,,
{16}5b,,8,6,
1,7,,28,
,,4h[16:2],,
3h[16:2],,2h[16:2],,
{16}8,,1,7,
2,8h[16:2],,1,
,,13,,
8,4,7,3,
{16}6h[16:2],,1,7,
,8,,17,
,,2h[16:2],,
3h[16:2],,4h[16:2],,
{16}5,,6,5,
7,4,,28,
,3,4,2,
5h[16:4],,,,
{16}1pp6[16:12],,,,
7,,,,
7,,,,
7,,,,
{48}A7,D8,A8,,,,,,,,,,
{16}6^3[2:1],,,,
7,,,,
7,,,,
{16}8V64[16:8],,,,
3,,,,
3,,,,
3,,,,
{16}2<6[16:10],,,,
5,,,,
5,,,,
5,,,,
{16}4pp8[16:10],,,,
8,,,,
1,,,,
2,,,,
{16}3^8[16:4],,,,
8-4[16:3],,,,
7,,,,
6,,,,
{16}5-7[16:2],,,,
1-3[16:2],,,,
8-4[16:2],,,,
3>6[16:6],,,,
{16},,,,
,,,,
8h[16:2],,,,
71,,2,2,
{16}4b,,5,,
46,,7,,
5,,4,,
35,,2,,
{16}1h[16:2],,7,8,
6,1,,3,
4^7[16:2],,3,,
2,,3,,
{16}4,,5,,
46,,7,,
5,,4,,
35,,2,,
{16}4h[16:2],,3,5,
2,6,,2,
1^6[16:2],,2,,
3,,4,,
{16}56,,4,,
35,,2,,
4,,5,,
46,,7,,
{16}8-4[16:1],,1,8x,
,2,,3,
4x<8[24:4],,3,,
2,,1,,
{16}2,,8,1,
7,2,,3,
3h[16:2],,4h[16:2],,
5h[16:2],,6,6>7[16:5],
{16},,,,
,,,,
A5,A4,A3,A2,
1x/5x,,,,
{16}35,,2,4,
3-1[24:2],5,,3,
6-4[24:2],,7,,
8,,1,,
{16}24,,3,5,
4<2[16:4],6h[16:3],,,
4,,,,
6,,7,,
{16}18,,2,4,
3-1[24:2],5,,3,
6-4[24:2],,7,,
8,,1,,
{16}2q8[16:3],,,4,
4h[16:4],,,,
1h[16:2],,3h[16:2],,
5h[16:2],,7,,
{16}81,,7,5,
6^8[16:2],4,,6,
3^5[16:2],,2,,
1,,8,,
{16}75,,6,4,
5V31-7[16:4],3h[16:3],,,
5,,,,
3,,2,,
{16}8/1-5[16:2],,,,
6,,7,,
8<1[16:4],,1,,
2,,3,,
{16}4qq1[16:5]*pp7[16:5],,,,
,,,,
,,,,
2,6,3,5,
{16}4b,6v1[16:2],5,7^4[24:3],
,6,,7,
,,8h[16:2],,
4h[16:2],,3h[16:2],,
{16}5b,3v8[16:2],4,2>5[24:3],
,3,,2,
,,8h[16:2],,
5h[16:2],,6h[16:2],,
{16}4b,5p1[16:2],3,6pp4[24:7],
,5,,6,
,,1,,
2,,3,,
{16}4>5[64:13],,,,
,,,,
4x,3,2,1,
87,,16,,
{16}2b,8v5[16:2],1,7>2[24:3],
,8,,7,
,,4h[16:2],,
1h[16:2],,2,,
{16}7b,1v4[16:2],8,2<7[24:3],
,1,,2,
,,5h[16:2],,
8h[16:2],,7,,
{16}4b,5-1[16:2],3,6<4[16:4],
,5,,6,
,,8,,
1,,2,2-4-6-8-2>8b[16:11],
{16}Cf,,,,
,,,,
,,,,
,,,,
{16}1xh[16:2],,8,1,
7,8h[16:2],,6,
,,57,,
4,6,3,5,
{16}2,,4,3h[16:2],
,1,,28,
,,7h[16:2],,
6h[16:2],,5h[16:2],,
{16}4,,3,4,
2,3h[16:2],,1,
,,28,,
37,,46,,
{16}5b,,8,6,
1,7,,28,
,,3h[16:2],,
4h[16:2],,5h[16:2],,
{16}6,,6,5,
7,4h[16:2],,8,
,,17,,
2,1,3,8,
{16}4h[16:2],,6,5,
,7,,68,
,,1h[16:2],,
2h[16:2],,3h[16:2],,
{16}4,,6,5,
7,4h[16:2],,8,
,2,1,3,
8h[16:4],,,,
{16}4-1[16:2],,8,,
7,,6,,
5-8[16:2],,1,,
2,,3,,
{16}4h[16:2],,8,3,
7,2,,6,
1-5[16:2],,5,,
6,,7,,
{16}8-5[16:2],,4,,
3,,2,,
1-4[16:2],,5,,
6,,7,,
{16}8h[16:2],,4,7,
3,6,,2,
5^8[16:2],,1,,
2,,3,,
{16}4-8[16:2],,8,,
7,,6,,
5-1[16:2],,1,,
2,,3,,
{16}4-2[24:2],,1,4,
,8,,7,
1>5[16:2],,6,,
7,,8,,
{16}5h[16:2],,7,5,
6,4,,3,
5h[16:2],,7h[16:2],,
1h[16:2],,3,3>4[16:4],
{16},,,,
,,,,
8qq6[8:1]*pp2[8:1],,,,
,,,,
{16}1-5[16:2],,5,,
6p4[16:3],,7,,
,,,,
1-5[16:2],,5,,6p4[16:3],,7,,
,,,,
3h[16:2],,1h[16:2],,
8h[16:2],,6,,
{16}57,,4,,
35,,2,,
1-5[16:2],,8,,
7-3[16:2],,6,,
{16}5,,4,4h[16:3],
3x,,2x,,
1x-5[8:1],,,,
1bx/8x,,,,
{16}7-3[16:2],,3,,
2p8[16:3],,1,,
,,,,
7-3[16:2],,3,,
2p8[16:3],,1,,
,,,,
5h[16:2],,7h[16:2],,
1h[16:2],,3,,
{16}35,,6,,
57,,8,,
1-5[16:2],,2,,
3-7[16:2],,4,,
{16}5-2[16:2],,6-1[16:2],,
5,,6,,
E3/B2/B3/A2/D3/A3,,E7/B7/B6/A7/D7/A6,,
1bh[4:1],,,,
{16}8b>8^5pp4[9:16]*<8^3qq4[9:16],,,,
,,,,
,,,,
,,,,
{16},,,,
,,,,
,,,,
,,,,
{16},,,,
,,,,
,,,,
,,,,
{16},,,,
,,,,
,,,,
,,,,
{16}1x-6[16:2],,,,
5h[16:3],,,7xv4-2[16:4],
,,6x,,
6x,,7,,
{16}8x-3[16:2],,,,
4h[16:3],,,2xv5-7[16:4],
,,3x,,
3x,,2,,
{16}1xv6[16:2],,,,
5h[16:3],,,7x>3[16:4],
,,6x,,
6x,,7,,
{16}8x-4[16:2],,,,
8<1b[384:341],,,,
,,,,
,,,,
{16},,,,
,,,,
8-4[16:2],,,,
1b/8b/Cf,,,3,
{16},4^7[16:2],3,,
2,,1,,
2,8v5[16:2],1,7^2[16:2],
,8,,7,
{16},5v6-4[32:5],5,,
4,,3,,
2,4-1[16:2],3,5-8[16:2],
,4,,5,
{16},1V75[32:5],1,,
2,,3,,
4<2[16:4],,,,
,,,,
{16}5,6,7,8,
12,,38,,
6,4v1[16:2],5,3^6[16:2],
,4,,3,
{16},8qq8[32:5],8,,
1,,2,,
3,1v6[16:2],2,8^3[16:2],
,1,,8,
{16},5V73[32:5],5,,
4,,3,,
2,4-1[16:2],3,5pp4[4:1],
,4,,5,
{16},2,2<5[16:6],,
3,,4,4h[16:7],
,,,,
,,,,
{16}5x,4,6,3,
7,,16,,
2,1-5-1[16:3],3,8,
,1,,,
{16}8bw4[24:2],,,8b,
,,,,
{384}1b/8b<1[16:10],,,,,,,,,,,,E2,E8,B1f,B8,,,,,,,,,B2,B7,C,,,,,,,,,,B3,B6,,,,,,,,,,,E4,E6,,,,,,,,,,,,,,,,,,,,,,,,,,,,,,,,,,,,,,,,,,,,,,,
{16},,,,
{16},,,,
,,,,
8,,3,4,
2,5h[16:2],,1-5[24:2],
{16},,81,,
8,7,6,5,
3h[16:2],,4,2,
,1,,82,
{16},,7h[16:2],,
6h[16:2],,5h[16:2],,
4,,3,4,
2,3h[16:2],,1,
{16},,82,,
73,,64,,
5b,,6,5,
7,4,,28,
{16},,3h[16:2],,
4h[16:2],,5h[16:2],,
6,,7,8,
6,1h[16:2],,4-8[16:2],
{16},,34,,
3,2,1,8,
B6,,B2,B8,
,C/B3/B6,,E8/E4/B8/B4,
{16},,E2h[16:4],,
Ch[16:2],,E6h[384:1],,
E3/E4/B3/E8/B7/E7,,B1,B5,
B3,B7,,C,
