&title=ANU
&artist=sasakure.UK VS 穴山大辅
&first=0.01
&des=Locks VS sasakale
&des_5=Locks VS sasakale
&lv_5=14+
&inote_5=(220){4},,,,,,,,,,,,,,,,{1}6-2-4[4:3],
8s4[4:3],
2-6-8[4:3],
{2},,6h[2:3],
4h[4:1],
3h[4:1],2,
{6}3/5,4/6,7/5,2/4h[12:1],3/5h[12:1],4/6h[12:1],
{16}2x,8,1,8,1,8,1,8,1,8,1,8,1,8,1,8,
(240){4}2h[8:3],4q8[4:1],,,7h[8:3],
5p1[4:1],,,3h[8:3],
8q5[4:1],,,6h[8:3],
1p4[4:1],,,2h[8:3],
4v6[4:1],{8},3,,,{4}7h[8:3],
5v3[4:1],{8},6,,,{1}2V48[8:3]/7V51[8:3],
{16}1,2,3,4,5s1[8:3],6,7,8z4[16:3],{2}1b,
{8}2xh[8:3],,,5,3,4,{4}5V31[4:1],
{8}7xh[8:3],,,4,6,5,{4}4V68[4:1],
{8}3xh[8:3],,,5,3,6,{4}4>8[4:1],
{8}6xh[8:3],,,4,6,3,{4}5<1[4:1],
{8}4x,4,4,4,{16}1,2,3,4,{4}5,
{8}6x,6,6,6,{16}8,7,6,5,{4}4,
{8}2x/6x,2,3/7,7,4/8,4,5/1<7-5b[2:1],1/5>3-1[8:3],
,,,,,,,,{1}Cf/1b-7-5-3-1-6-4-1b[4:19],
{2},,,,,Ch[2:3],
{8},,,,,,,,,,,,,,3,
6,
4,5v6[8:1],3,4v3[8:1],,,,,{4}2,
3/5,2h[4:1],{8}4,3,
{4}5,4V26[4:1],6V84[4:1],7,
5,6h[4:1],{8}4,5,{4}3,
4V62[4:1],2V84[4:1],1,3,
2h[4:1],{8}4,3,{4}5,4/6h[4:1],
5,{16}3x,4,3,4,{8}3,{16}6x,5,6,5,{8}6,
{16}3x,4,3,4,{8}2,{16}6x,5,6,5,{8}7,{16}1x,8,1,8,
{4}1b-5[8:1],1/6-8v2[8:3],4,{8}3,3h[8:3],
,2,{4}2,1,1-7[8:1],
1/2-4v6[8:3],2,{8}7,7h[8:3],,6,
{4}6>3[8:1],7,8-2[8:1],8/7-5v3[8:3],
7,{8}2,2h[8:3],,3,{4}3<6[8:1],
1,C,{8}6/4,5h[8:1],{4}3,
{8}2,1<6[8:1],2,1>4[8:1],,1-6[8:1],,1,
{4}5x-2[8:1],5/6,{8}7V53[4:1],7,3V17[4:1],3,
,5,{4}5h[4:1],{32}2,1,8,7,{8}6,{4}4xv7[8:1],
4/3,{8}2V46[4:1],2,6V82[4:1],6,,4,
{4}4h[4:1],{32}7,8,1,2,{8}3,{4}5x-1[8:1],5/6,
{8}7V53[4:1],7,3V17[4:1],3,,5,{4}5h[4:1],
{8},,8x/2x,{16}2x,3,{8}4,1x/7x,{16}7x,6,{8}5,
8x/2x,{16}2x,3,{8}4,1x/7x,{16}7x,6,{8}5,{16}E3/E7,B6/B3,{8}C,
8b,{16}3,4,{8}3,2b,{16}6,5,{8}6,8b,{16}3,4,
3,4,{8}3,,,7,7h[8:1],5,5h[8:1],
3,3h[8:1],{16}E3,E2,E1,E8,E7,E6,E5,E4,{4}E3/C/E7,
{8}1b,{16}6,5,{8}6,7b,{16}3,4,{8}3,1b,{16}6,5,
6,5,{8}6,,,2h[8:1],5h[8:1],3h[8:1],6h[8:1],
4h[8:1],7h[8:1],{16}E4,E3,B2,E2,E8,E7,B6,E6,{4}C/E1/E5,
{8}2b,{16}6,5,{8}6,{16}8b,3,4,3,,,{8}7b/2b,{16}4,5,
4,5,{8}4,,,2,2h[8:1],4,4h[8:1],
6,6h[8:1],{16}E7,E8,E1,E2,E3,E4,E5,E6,{4}E7/C/E3,
{8}1b,{16}3,4,{8}3,7b,{16}6,5,{8}6,1b,3s7[8:5],
{1}5s1[2:1],
(200)6v3[4:5],
{2},4h[2:1],
{8}E7,,,E3,,,,3h[4:1]/5h[4:1],
,,,3h[8:3]/5h[4:1],,,,,3,
5,4,6,3,4,5,6,
3,5,4,6,{2}5h[4:1],
{8}7,6/4,3/5,7,6/4,3/5,1,2h[16:1]/4h[16:1],
3h[16:1]/5h[16:1],1,3h[16:1]/5h[16:1],4h[16:1]/6h[16:1],(151){96}Cf,B7/B1/B5/B3,{4},{16},,,{64},,{96},{2}6V83[4:3],
2V47b[4:1],
{8},C,B7/B2/E3/E7/A2/A7,B5/B4,{12}3h,4,2,6h,4,5,
2h,4,3,6h,5,7,2h,4,3,5h,7,5,
1h,4,2,6h,4,8,(156){8}Cf,{16}3,3,{8}4,{16}6,5,
{8}6,{16}2,4,{8}2,{16}7,5,{8}6,{16}2,5,3,4,3,6,
5,6,4,5,4,6,{8}1h,Cf,{16}6,6,3,3,5,5,
{8}4h[8:1],6h[8:1],8h[8:1],2h[8:1],{16}E7/B7,E3/B3,E1,E5,B3/E4,E8/B7,E2,E6,
{8}2xv5>4[8:1]/6xv1<8b[8:1],8/4,{4}2b/6b,(161){8}Cf,{16}3,4,{8}2,{16}6,6,
{8}5,{16}2,4,{8}3,{16}7,5,{8}7,{16}4,5,4,6,6,3,
4,3,5,4,5,3,{8}8h,Cf,{16}3,3,5,5,4,4,
{8}6h[8:1],5h[8:1],4h[8:1],3h[8:1],{16}B7/E7,B3/E3,E6,E2,E8/B8,E4/B4,E1,E5,
{8}1xv7[8:1]/5xv3b[8:1],7/3,{4}1b/5b,(166){8}Cf,{16}1,3,{8}1,{16}7,6,
{8}7,{16}3s7[8:1],4,{4}2h[8:1],{8}Cf,{16}6,4,{8}6,{16}2,4,
{8}2,{16}6s2b[400:49],5,{4}7h[8:1],(171){8}Cf,{16}4,4,6,6,3,3,
{8}5h[8:1],1h[8:1],3h[8:1],7h[8:1],Cf,{16}6,4,6,4,5,3,
5,3,{32}8,7,6,5,4,3,2,1,8w4[9.1754##0.4],7,6,5,(150){2}4h/1w5b[9##0.4],
{1},,,,,{4},,{8},(220){16}1,
8,1,8,1,8,
1,8,1,8,1,8,1,8,2,7,1,8,2,7,1,8,
2,7,1,8,1,8,1,8,1,8h,1h,8h,1h,8h,1h,8h,
1h,8bh[#0.6136398],,,,,,,,,(240){8}4v6[8:3],,6,
{4}6<4[16:5],{8}5,5,,7<6-4[4:1],,3,
{4}2v5[8:1],{8}5,6,7,8w4[8:1],,8,
,1w5b[12:1],,1,,7-4[8:1]/8-5[8:1],,8/7,
,2-5b[8:1]/1-4b[8:1],,1/2,,6z2[8:3],,2,
{4}2<4[16:5],{8}3,3,,1q5[4:1],,5,
{4}7v4[8:1],{8}4,3,2,1w5[8:1],,1,
,8w4b[12:1],,8,,2v5[8:1]/1v4[8:1],,1/2,
,7v4b[8:1]/8v5b[8:1],,8/7,,3s7[8:3],,7,
{4}7>5[16:5],{8}6,6,,8p4[4:1],,4,
{4}2v5[8:1],{8}5,6,7,8<4[8:1],,8/2,
,1>5b[8:1],,1/7,,8V64[8:1],,8b,
,1V35b[8:1],,1b,{16},,7,6,5,4,8,7,
6,5,1,8,7,6,2,3,4,5,8,7,6,5,2,3,
4,5,7,6,5,4,1,2,3,4,{8}6h[16:1],6h[16:1],6h[16:1],
6h[16:1],7h[16:1]/5h[16:1],7h[16:1]/5h[16:1],5h[16:1]/7h[16:1],5h[16:1]/7h[16:1],4h[16:1]/8h[16:1],4h[16:1]/8h[16:1],4h[16:1]/8h[16:1],
4h[16:1]/8h[16:1],1x-6[8:1]/5x-2[8:1],,,,3v5b[8:3],,5,
{4}5V31b[8:3],{8}7,7,,6-1[8:1],,6/1-5[8:1],
{4}2,{8}3,3,4,4p8[8:1],,6,
,5q1[8:1],,3,,4p7b[8:1],,B6/E7,
,5q2b[8:1],,B3/E3,,1q7[8:3],,7,
{4}7<1[8:3],{8}8,8,,6q4b[8:3],,4,
{4}4>6b[8:3],{8}5,5,,3x,{16}1x,2x,{8}8-4[8:1]*-3[8:1],
,8b,,2,4<7[8:1],3,{4}4>1[8:1],
4w8[8:1],4,{8}Cf,2-5[8:1],6-1[8:1],2,
6,{16}2,3,4,8,7,6,{8}5,3-8[8:1],7-4[8:1],3,
7,{16}1,2,3,4,7,6,{8}5,2b,{16}3,4,{8}3,
5/2,7b,{16}6,5,{8}6,4/7,2b,{16}4,5,{8}4,
3/6,8b-4[8:1]/1b-5[8:1],{16},,,,,,2,3,4,5,8,7,
6,5,1,2,3,4,7,6,5,4,2,3,4,5,8,7,
6,5,1,2,3,4,7,6,5,4,{8}3h[16:1],3h[16:1],3h[16:1],
3h[16:1],2h[16:1]/4h[16:1],2h[16:1]/4h[16:1],4h[16:1]/2h[16:1],4h[16:1]/2h[16:1],1h[16:1]/5h[16:1],1h[16:1]/5h[16:1],1h[16:1]/5h[16:1],
1h[16:1]/5h[16:1],{96}Cf,B7/B1/B3/B5,{4},{16},,,{64},,{96},{8}2b,{16}6,5,{8}6,
7b,{16}3,4,{8}3,{16}1b,6,5,6,5,6,,,,,,,{8}2,
2h[8:1],4,4h[8:1],6,6h[8:1],{16}E8,B8,
B1,E2,E4,B4,B5,E6,{8}C/E7/E3,,8b,{16}3,4,{8}3,
2b,{16}6,5,{8}6,{16}7b,3,4,3,4,3,,,,,,,{8}7h[8:1],
4h[8:1],6h[8:1],3h[8:1],5h[8:1],2h[8:1],{16}E6,E7,
B7,E8,E2,E3,B3,E4,{8}C/E1/E5,,3b,{16}6,5,{8}6,
8b,{16}3,4,{8}3,2b,{16}6,5,6,5,{4}6,
{8},7,7h[8:1],5,5h[8:1],3,3h[8:1],{16}B2,B1,
B8,B7,B6,B5,B4,B3,{8}C/E3/E7,,8b/1b,{16}3,4,{8}3,
1b/8b,{16}6,5,{8}6,7b/2b,{16}4,5,4,5,{4}4,
{8},2h[8:1],5h[8:1],3h[8:1],6h[8:1],4h[8:1],7h[8:1],{16}E4,E3,
B2,E2,E8,E7,B6,E6,{8}C/E1/E5,,2b,5,{16}3,4,
3,4,{8}2h[8:1],,7b,4,{16}6,5,6,5,{8}7h[8:1],
,2b,5h,{16}3,4,3,4,{8}2h[8:1],,7b,
4h,{16}6,5,6,5,{8}7h[8:1],,4/8,,7/3,
,6/2,,1/5,,8h[16:1]/4h[16:1],,3h[16:1]/7h[16:1],
,6h[16:1]/2h[16:1],,1h[16:1]/5h[16:1],{16},,3,7h,3,7h,3,7h,
3,7h,3,7h,3,7h,3,7h,3,7h,2h,6,2h,6,2h,6,
2h,6,2h,6,2h,6,2h,6,2h,6,1,5h,1,5h,1,5h,
1,5h,1,5h,1,5h,1,5h,1,5h,8h,4,8h,4,8h,4,
8h,4,8h,4,8h,4,8h,4,8h,4,{8}B4/B6/B5/B1/E1f/E5f/D1/D5/D4/E4/D8/B2/E8/B7/D3/E3/D7/E7/E6/D6/E2/D2/B8/B3/Ch[8:35],
E
