&title=MYURBD
&artist=ETIA.
&first=0.055
&des=Coming!Coming!
&lv_5=14
&inote_5=(175){4},,,,,5w1[4:1],
,,4/6h[4:7],
4,3>4[8:9],3,
,,,,{1}3h[4:7]/6<5[8:9],
{8},,,,,5,6,6,
{4}2/6h[4:1],2,3/5h[4:1],3,
5/4h[4:1],5,6/3h[4:1],6,
7/2h[4:1],7,8/1h[4:1],8,
2h[4:1],{8}3h[8:1],4h[8:3],,,5h[8:1],4,
6/3,{16}2,1,2,1,{8}2,3>1[16:1]/8<6[16:1],1/6,{16},,4,5,
{8}4,6/3,{16}7,8,{8}7,6<8[16:1]/1>3[16:1],3/8,,,4/6,
{16}1,2,1,2,{8}1,3>1[16:1]/8<6[16:1],6/1,,5h[4:1],
1,3,{16}1,2,1,2,{8}1,{16}8/3,3,,6/1,{8}6,
2/7,{16}6,5,6,5,{8}6,7<5[16:1]/4>2[16:1],5/2,{16},,8,1,
{8}8,2/7,{16}3,4,{8}3,2>4[16:1]/5<7[16:1],7/4,,,8/2,
{16}5,6,5,6,{8}5,7<5[16:1]/4>2[16:1],2/5,,,{4}5b/2h[8:7],
6b,7b,8b,
3/7V14[8:5],3,2h[8:1],1h[8:1],
{24}1b,2,3,1b/4,8,7,{8}6,{24}1b,2,3,1b/4,8,7,6,{48},,,,{16}3,3,{8}5,
{4}6/2V85[8:5],6,7h[8:1],8h[8:1],
{24}8b,7,6,8b/5,1,2,{8}3,{24}8b,7,6,8b/5,1,2,3,{48},,,,{16}6,6,{8}4,
{16}7-2[16:1],6,{8}5h[4:1],{16},,,,7-2[16:1],6,{8}5h[4:1],,,4,
4,5,5,3,3,6,6,
{16}2,7,2,7,2,7,2,7,{24}1,8,1,8,1,8,{32}1,2,3,4,5,6,7,8,
{6}1/5b-7[16:1],5b,{24},{8}4b-2[16:1],{24},4b,{96},,,,,,,,,,,,,,,,{32}5b,6,7,8,,,,,{4}4b/5b,
{16}3,5,4,5,2,5,4,5,8,5,4,5,
3,5,4,5,8,5,4,5,2,5,4,5,3,5,4,5,
{4}3h[4:1],{16}6,4,5,4,7,4,5,4,1,4,5,4,
{8}6-4[16:1],7,2-4[16:1],1,7-5[16:1],8,{4}2-4[16:1]*-5[16:1],
2b,{16}6,4,5,4,8,4,5,4,2,4,5,4,
1,4,5,4,7,4,5,4,2,4,5,4,7,4,5,4,
{4}6h[4:1],{16}3,5,4,5,2,5,4,5,8,5,4,5,
{8}3-5[16:1],2,7-5[16:1],8,2-4[16:1],1,{4}7-5[16:1]*-4[16:1],
{8}7b,{16}2,1,3,1,{8}2,{16}8>3[16:1],7,{8}6h[8:1],{16},,4,5,
{8}4,6/8,{16}7,7,{8}7,{16}1<6[16:1],2,{8}3h[8:1],,,4/6,
{16}8,2,1,2,{8}8,{16}8>3[16:1],7,{8}6h[8:1],,4h[4:1],
7,7,{16}8,1,7,1,8,7,2,3,7,6,3,4,
{4}6<4[8:5],{8}3,3,4,4<3[8:7],,2h[4:1],
,,3,3,4,4,,,{4}3>5[8:5],
{8}6,6,5,5>6[8:7],,7h[4:1],
,,6,6,5,5,,,{4}6h[4:1]/2h[8:1],
2h[8:1],{8}2h[8:1],1h[16:1],8h[16:1]/2h[8:1],7h[16:1],
{16}6-8[8:1]/2-4[8:1],1/5,{8}4p8[4:1]/8p4[4:1],,,,,,,{4}7h[8:1]/3h[4:1],
{16}7h[8:1],2,{8}1h[8:1],7h[8:1],1h[16:1],2h[16:1]/7h[8:1],3h[16:1],
{16}5/4,6/3,{8}7>2[4:1]/2v4[4:1],{16},,,,,,,,5,5,{8}3,
6/4,5,5/3,4,7/5,6,4/2,3,
{32}2,1,8,7,6,5,{16}4,{32},,,,7,8,1,2,3,4,{16}5,,,6,6,{8}4,
5/3,4,4/6,5,4/2,3,5/7,6,
{32}2,1,8,7,6,5,{16}4,{32}7,8,1,2,3,4,{16}5,{32}2,1,8,7,6,5,{16}4,6,6,{8}4,
{4}3/7V14[8:5],3,2h[8:1],1h[8:1],
{24}1b,2,3,1b/4,8,7,{8}6,{24}1b,2,3,1b/4,8,7,6,{48},,,,{16}3,3,{8}5,
{4}6/2V85[8:5],6,7h[8:1],8h[8:1],
{24}8b,7,6,8b/5,1,2,{8}3,{24}8b,7,6,8b/5,1,2,3,{48},,,,{16}6,6,{8}4,
5/4h[1:1],5,6,6,7,7,8,8,
{16}1,8,7,6,{4}4h[4:3]/5>5[8:3],{16},,,,,,,,3,
3,2,2,1,1,8,8,7,7,6,6,5,5,4,4,
{32}3,2,1,8,7,6,5,4,3,2,1,8,7,6,5,4,3,2,1,8,7,6,5,4,3,2,1,8,7,6,5,4,
{1}2b/3<2[8:29],
{2},4h[2:1],
{4},,,,,,,4>5[1:3],
{1}4,
{2},5h[2:1],
{4},,,,,4w8[8:3],
,,6/3h[4:1],
{8}6,3,2/6,3h[8:1],6,2h[4:1],
{4}6,6/3h[8:1],6/4h[8:1],{8}6/5,4,
{4}6/5h[4:1],{8}6,5,6/4,5h[8:1],6,4h[8:1],
6,4,6/3,4h[4:1],{4}6,6/3,
3/6h[4:1],{8}3,7,3/8,7h[8:1],3,8h[4:1],
{4}3,3/7h[8:1],3/6h[8:1],{8}3/5,6,
{4}3/5h[4:1],{8}3,5,3/5,6h[8:1],3,6h[8:1],
3h[8:1],5h[8:1],4h[2:1],5h[8:3],,,,,{4}3/7V14[8:5],
3,2h[8:1],1h[8:1],
{24}1b,2,3,1b/4,8,7,{8}6,{24}1b,2,3,1b/4,8,7,6,{48},,,,{16}3,3,{8}5,
{4}6/2V85[8:5],6,7h[8:1],8h[8:1],
{24}8b,7,6,8b/5,1,2,{8}3,{24}8b,7,6,8b/5,1,2,3,{48},,,,{16}6,6,{8}4,
{24}2-7[16:1],3,4,5h[4:1],,,,,,,,,2-7[16:1],3,4,5h[4:1],,,,,,,,,{8}1-3[16:1],
8-4[16:1],1,8,1-5[16:1],8-6[16:1],1,8,
{16}1,7,1,7,2,6,2,6,3,5,3,5,{24}4,4,4,4,4,4,
{6}4b-6[16:1],4b,{24},{8}3b-1[16:1],{24},3bw7[12:1],,,,,,,,,,,{1}1h[1:2]/5h[1:2],
{4},,,,,5w1[8:3],
{8},,,,3-5[16:1],
3,3/7-5[16:1],7,7/2-4[16:1],2,{4}2/7-5[16:1]*-4[16:1],
7b,{16}3b,4,4,4,3b,4,4,4,3b,4,4,4,
3b,4,4,4,2b,4,4,4,2bV47[8:1],1,,1,{4}2b,
{16},,5b/4b,5b/4b,{4}5b/4b,{16}6b,5,5,5,6b,5,5,5,
{8}6b-4[16:1],6,6/2-4[16:1],2,2/7-5[16:1],7,{4}7/2-4[16:1]*-5[16:1],
2b,{16}2b,5,3,4,2b,5,1,8,5b,6,5,6,
4b,7,5,6,4b,7,5,6,4b-8[16:1],5,4b,4b,{8}4b,7h[4:1],
{16},,,,7b,4,6,5,7b,4,8,1,4b,3,4,3,
5b,4,7,3,5,3,7,1,5,6,3,2,6,7,2,1,
6b,8,7,1,6b,3,5,4,1b,2,1,2,8b,3,1,2,
8b,3,1,2,8b-4[16:1],1,8b,8b,{8}8b,3h[4:1],{16},,,,3b,
8,2,1,3b,8,4,5,8b,7,8,7,1b,5,3,7,
{1}5bp4[2:1],
{8}7h[8:3],,,6h[8:1],5h[8:1],4h[4:1],{4}8b-6[16:1],
3h[8:1]/8-2[16:1],4h[8:1]/8-6[16:1],5h[8:1]/8-2[16:1],{8}4/8-6[16:1],3,
{4}2h[4:1]/8-2[16:1],{8}8-6[16:1],4,3/8-2[16:1],5h[8:1],8-6[16:1],4h[8:1],
8-2[16:1],4,5/8-6[16:1],3h[4:1],{4}8-4[16:1],8/2-4[16:1],
7h[4:1]/2-8[16:1],{8}2-4[16:1],7,5/2-8[16:1],6h[8:1],2-4[16:1],7h[4:1],
{4}2-8[16:1],6h[8:1]/2-4[16:1],5h[8:1]/2-8[16:1],{8}7/2-4[16:1],6,
{4}8h[4:1]/2-8[16:1],{8}2-4[16:1],7,7/2-8[16:1],5h[8:1],2-4[16:1],6h[8:1],
2-8[16:1],5,7/2-4[16:1],6h[4:1],{4}2-6[16:1],2b/7-5[16:1],
1h[4:1]/7-1[16:1],{8}7-5[16:1],4,2/7-1[16:1],3h[8:1],7-5[16:1],4h[4:1],
{4}7-1[16:1],3h[8:1]/7-5[16:1],2h[8:1]/7-1[16:1],{8}3/7-5[16:1],5,
{4}4h[4:1]/7-1[16:1],{8}7-5[16:1],3,4/7-1[16:1],2h[8:1],7-5[16:1],3h[8:1],
7-1[16:1],3,2/7-5[16:1],4h[4:1],{4}7-3[16:1],7/3,
{8}2h[4:1]/6-3[16:1],7,{4}6,{8}7h[4:1]/3-6[16:1],2,{4}3,
{8}3h[4:1],5,7h[4:1],5,2h[4:1],5,8h[4:1],5,
3,3h[8:1],7,7h[8:1],{24}4,5,4,5,{48},{16}2,{24}7,4,5,4,5,4,
{8}5h[4:1]/3h[4:1],,,7h[8:1]/5h[8:1],,4h[8:1]/2h[8:1],,,3b/8b,
{16}2,1,3,8,{8}2,{24}8>3[16:1],7,6,5h[8:1],,,,,,4,5,4,
{8}5,6/8,{16}7,7,{8}7,{24}1<6[16:1],2,3,4h[8:1],,,,,,,,,{8}4/6,
{16}8,2,6,4,{8}8,{24}8>3[16:1],7,6,5h[8:1],,,,,,{8}4h[4:1],
7,7,{24}8,1,8,1,8,1,{16}8,7,2,3,7,6,3,4,
{4}6p4[8:5],{8}3,3,{16}2,3,{8}4>6[8:7],,2h[4:1],
,,3,3,{16}5,4,{8}3,,,{4}3q5[8:5],
{8}6,6,{16}7,6,{8}5<3[8:7],,7h[4:1],
,,6,6,{16}4s8[2:1],5,{8}6,
E
