&title=それは小さな光のような
&artist=さユり
&first=0.55
&des_5=-
&lv_5=13
&inote_5=(48)
{24}
2h[8:2],,4,4,,,7h[8:2],,5,5,,,2h[8:2],,4,4,,,7h[12:1],,5,5,6,6,
1^4[12:1],,,,1,,1^6[12:1],,,,1,,1pp3[12:1],,,,1,,1qq7[12:1],,,,1,,
1V35[12:1],,,,1,,1V75[12:1],,,,1,,1>7[12:3],,3<7[12:2],,5<7[12:1],,1,,,,,,
8qq6[12:1],,,,8,,1p4[12:1],,,,1,,8<4[12:1],,7qq8[12:2],,7,,8,,,,,,
1^4[8:1],,3^6[8:1],,5^8[8:1],,7,,,,,,1s5[12:1],,,,,,,,,,,,
7-4[16:1],,4-1[16:1]/5,,2h[8:2]/8,,,,,,,,2-5[16:1],,5-8[16:1]/4,,7h[8:2]/1,,,,,,,,
7-3[16:1],,4-1[16:1]/5,,2h[8:2]/8,,,,,,,,2-6[16:1],,5-8[16:1]/4,,7h[8:2]/1-4[16:1],,,,,,,,
7-4[16:1],,8,8,1,,7/2-5[16:1],,1,1,8,,7pp2[24:4]/2,,8,8,1,,7/2,,,,3,,
1qq3[24:5]/3,8,7,8p4[24:2]/6,1,2,1/3,,,,,,
2b-5[16:1]/5b,3,4,5,62,,
2/8-5[16:1],7,6,5,83,,
8/2-6[16:1],3,4,5,26,,
8/2,7,8,1,82,,
3-8[16:1]/4,45,5/6-1[16:1],,8/1,,
3-7[16:1],,6-2[16:1],,4,,
3V51[24:2]/5,,6,,1,,
3/8h[24:4],,,,1,,
7b-4[16:1]/2b,4,5h[24:2],,7,,
7/1-5[16:1],2,3h[24:2],,1,,
8/1,7,6h[24:2],,8,,
1/2^5[16:1],,6^1[16:1]/5,,1/2q6[16:1],,
2/6,,,,2,,
7^4[16:1],,4/3^8[16:1],,7p3[16:1]/8,,
73,,,,7,,
2,1,82,73,64,5,
7b/3b-8[16:1],2,1,4-7[16:1]/8,5,6,
73,6,5,4,2q6[16:1],,
1p5[16:1]/7,3,5,3,7-4[16:1]/2,,
1,,2,,71,,
3qq4[16:2],4,5,,75,,
3q5[16:2],4,5,,5/6<3[16:2],,
3,,8,,6,,4,,5,,68,,
7b/1bq5[16:1],,3,3,82,,
7/1p5[16:1],,6,6,78,,
1>5[16:1]/2,,3,3,82,,
7/1,,6,6,71,,
2b-5[16:1]/6b,3,4-1[16:1],3,2,,
6b-1[16:1]/2b,7,8-5[16:1],7,6,,
2b-5[16:1]/6b,3,4-1[16:1],3,2,,
7bs3[16:1]/2b,8,7,6,5,4,
7b/3b>3[16:4],
E
