&title=竹取物語2017
&artist=株式会社ロッテは「キシリトールガム」発売20周年記念CM
&first=0.02
&des=KuSA
&lv_5=13+
&inote_5=(110)
{1},
{8}
1b-4[2:1]/8b-5[2:1]
,,,,,,,,
{12}
1/8,1-4[2:1]/8-5[2:1],,
{8}
,,,,,,
{12}5,5-8[4:1],,,,,4-1[4:1],,,,,7,
{8}
7>6[2:1],,,,,,,,8b/1h[4:1],,2h[4:1],,3<6[4:1],,,,8h[4:1],,7h[4:1],,6h[4:1],,5<8[8:2]*>1[8:2],,,,,,
4/3,,5/6,,8h[4:1]/7h[4:1],,,,1h[4:1]/2h[4:1],,,,
2b/4h[8:1],3,4/5,6,7/5h[8:1],6,4/5,3,4h[8:1]/1,2,3/5,6,8/5h[8:1],7,3/6,2,
1/8,7/5,1/8,2/4,3/5,7/8,4/6,2/1,
{24}7,8,6,1,5,2,4,3,6,5,7,4,8,,8,2,,2,5qq5[4:1],4,6,2,,,
{16}
5b<2[4:1],,7,,1,,,,3h[16:3],,7,7h[16:3],,4,4,,
8<5[8:1]*>3[8:1],,3/5,,8q1[4:1],,,,2,2,,4,
4pp4[4:1],,7,,4b>7[4:1],,2,,8,,,,6h[16:3],,2,2h[16:3],,5,5,,
1>4[8:1]*<6[8:1],,4/6,,1q3[8:3],,,,1b<5[8:1],,,,,,,,
5b/4h[4:1],,2,,5h[4:1],,2>7[4:1],,1h[8:1],,2,,1-5[8:1],,2v4[8:1],,1,,2,,
{32}8,7,6,2,3,4,7,6,5s1[8:1],1,2,3,
{16}46,,,,,,
5h[4:1]/4b,,7,,4h[4:1],,8,,6h[8:1],,1,,2/7,,{32}3,4,3,4,{48}2b/5b,,,,,,,,,,4b/7b,,,,,,,,1b/3b,,,,,,{32}8bv3[8:1]/6bv1[8:1],,,,,,,,
{16},,,,
4/5>2[8:1],,6,,5/7-4[8:1],,8,,7/1-5[8:1],,1-3[8:1],,,,,,
7<4[8:1],,8,,7/1-6[8:1],,2,,3V15[6:1]/1,,4,,,,,,
7/4h[8:1],,7>2[8:1],,4,,5<4[4:1]*pp4[4:1],,5,,,,,,,,
7/3-7[8:1],,,5,5,5,5s1[4:1],5-1[16:3],,,,,,,,,
2b<7[8:1]/7b,,6,,2>5[8:1]/5,,6,,7-3[8:1],,7-5[8:1],,,,,,
2>5[8:1],,1,,2/8-3[8:1],,7,,6V84[6:1]/8,,5,,,,,,
2h[8:1]/1,,8,,7h[8:1]/1,,2,,3-1[8:1]/4-7[8:1],,5,,3/4,,,,
6,5,,2/5,3,4,,7/4,6,5,,2/7,8,1,,5,
{32}3b,2,1,8,7,6,5,4,3p6[4:1],2,1,8,7,6,5,4,
{16}
,,,,8b-4[8:1],,,,8/2-5[8:1],,,,2/6>3[8:1],,,,6/1w5[8:1],,,,1<2[4:1],,,,7/1,,,,7>6[4:1],,,,
7/2,,,,3>7[8:1],,,,3/6<2[8:1],,,,6/3p7[12:1],,,,3/6>4[12:1],,,,6/4,,,,
1b>5[4:1],,,,5<1[4:1],,,,1>5[4:1],,,,5<1[4:1],,,,1>5[4:1],,1,,5<1[4:1],,5,,1>5[4:1],,1,,5,,5,,
7,,7/8,,7/1,,7/2,,3,,3/4,,3/5,,3/6,,
7h[16:1]/8h[16:1],,2h[16:1]/4h[16:1],,5h[16:1]/7h[16:1],,1h[16:1]/2h[16:1],,
3h[16:1]/5h[16:1],,6h[16:1]/7h[16:1],,4h[16:1]/3h[16:1],,1h[16:1]/8h[16:1],,
{48}1b/8b,2/7,3/6,4>5[1:1]/5<4[1:1],,,,,,,,,,,,,,,,,,,,,,,,,,,,,,,,,,,,,,,,,,,,,
{8},,,,,,,,1bpp1[2:1],,,,,,,,6pp5[2:1]/2pp1[2:1],,,,,,,,
7b/5h[8:1],6,4/5,3,2/4h[8:1],3,4/5,6,
7/1h[8:1],8,1/3,2,3/5h[8:1],4,5/7,6,
7/8,1/8,1/2,2/3,6/4,7/5,1/6,2/7,
{24}
1,8,1,8,1,8,2,7,3,6,4-8[24:5],5,
{12}4h[24:9],,,,,,2b/6b,,,
{16}
3h[16:1],4h[16:1],2<7[12:1],4h[16:1],3h[16:1],4h[16:1],2,,
5-1[8:1],4,7h[4:1],3,,,,,
6h[16:1],5h[16:1],7h[16:1],1h[16:1],8q5[8:1],2,3,4,,,,,
3b/6b,,,,6h[16:1],5h[16:1],7>2[12:1],5h[16:1],6h[16:1],5h[16:1],7,,
4z8[8:1],5,2h[4:1],7,,,,,{32}1,2,3,8,7,6,
{16}4/5,4q1[8:1]/5p8[8:1],,,,,,,,2b/7b,,,,
3h[16:1],5h[16:1],4-1[12:1],6h[16:1],3h[16:1],5h[16:1],4,,
7,6,4,3,2,1h[16:1]/8h[16:1],,
7h[8:1]/2,,5,5h[8:1],8,8h[8:1],4,4h[8:1],1,1-4[12:1],,,,1>7[12:3],,
8,8,7<1[12:3],,8,8,1>7[12:3],,8,8,7s3[8:4],,8,8,8b,,,,5,,,,4,,,,1q6[12:1]*p4[12:1]/5,,,,1b,,,,
{32}
5h[8:1]/2,3,4,,,,,,5h[8:1]/2,3,4,,,,,,5h[8:1]/2,3,4,,,,,,
4h[8:1]/7b,6,5,,,,,,3h[8:1]/7,6,5,,,,,,4h[8:1]/7,6,5,,,,,,4-8[12:1]/7,6,5,,2,,,,4b,,,,,,,,
8h[8:1]/1,2,3,,,,,,8h[8:1]/1,2,3,,,,,,7-3[8:1]/1,2,3,,5/6,,,,7b,,,,,,,,
2h[8:1]/7,6,5,,,,,,7h[8:1]/2,3,4,,,,,,1/8-4[8:1],2/7,3/6,,,,,,
{16}
8b/1,,2,,3-7[8:1],,4,5,3b,,6,,7-3[8:1],,8,1,
7b,,2,,3-8[8:1],,4,5,3bv6[8:1],,7,,8,,1,,
{12}
2,2,2,6,6,6,
{32}
1b,2,3,4,7b,6,5,4,2b,3,4,5,8b,7,6,5,
1bv8[8:1],2,
{16}
3h[16:11],,,,,,,2-7[8:1],,,,2b,,,,
2b<7[8:1],5,4-8[8:1],,2v5[8:1],,4,,2p6[8:1]*<7[8:1],,,,2,,,,
6v1[8:1],3,4-8[8:1],,6qq3[4:1],,4,,6,,,,,,
3>8[8:1],,4b,,3/6v8[8:1],,5,,6/3v1[8:1],,4,,3/6v8[8:1],,7,,6/3,,1v3[8:1],,2,,
1q3[8:3]/8,,,,1b<5[8:1],,,,,,,,
7b-5[8:1]/2b,,1,,7-3[8:1],,3-7[8:1],,7>2[8:1]*<4[8:1],,8,,,,,,
1-3[8:1]/5,,3,,1-5[8:1],,5-1[8:1],,1V36[8:1]*V74[8:1],,7,,,,,,
8b/1b>4[8:1],,,,8<5[8:1]/1,,,,8/4>1[8:1],,1,,4/5<8[8:1],,8z4[4:1]*V26[4:1],,5b,,,,,,,,
3h[16:3]/7h[16:3],,,,3-8[8:1]/7-4[8:1],,2/6,,3bp1[2:1]/7bp5[2:1],,,,,,,,,,,,,,,,
{24}
1q5[8:1]/5q1[8:1],,,1/5,,,1<6[8:1]/5>2[8:1],,,,,,5v8[8:1]*v2[8:1]/1,,,,,,,,,,,,
{16}
8b<6[12:1]/1,,43,,8/2,,5,,
1b>3[12:1]/8,,56,,7/1,,4,,
{32}
1h[8:1]/8b,7,6,,,,,,2h[8:1]/1b,8,7,,,,,,3h[8:1]/4b,5,6,,,,,,
6b-2[8:1]/3b-7[8:1],7/2,8/1,,,,,,3b/6b,,,,
