&title=混沌ブギ
&artist=jon-YAKITORY
&first=-0.96
&des=Error452
&lv_5=13+
&des_5=Error452
&inote_5=
(190){4},,,,6h[8:1],
6h[8:1],5h[8:1],4h[8:1],
2h[8:1],2h[8:1],1h[8:1],8h[8:1],
2q4[8:3],8-5[8:1],C,{8}2,2qq4[8:3],
,8v5[8:1],,C,,E7/E3,{4}E3/E7,
7h[8:1],7h[8:1],6h[8:1],6h[8:1],
3h[8:1],3h[8:1],4h[8:1],4h[8:1],
7pp4[8:3],1-5b[8:1],C,{8}3,3-5v2[8:3],
5v7b[4:1],,,,,B7/B2,{4}E3/E7,
6/4,6/4,{8}6,5,6,7,
{4}8/4,8/4,{8}4,5,4,3,
{4}2-8-4[8:3],7-5b[8:1],C,{8}3,2<8-4b[8:3]*<8[6:1],
,7-5[8:1],,C,,E6/E4,{4}E4/E6,
3/5,3/5,{8}3,4,3,2,
{4}1/5,1/5,{8}5,4,5,6,
{4}7-4[8:1],3-8b[8:1],{8}6-1[8:1]*-1[8:1],6,,4h[4:1],
,6h[8:1],3h[8:1],7h[8:1],2h[8:1],8h[8:1],{4}1h[8:1],
6b/3,{8}5,6,5,6,5,6,
{4}7/4,{8}3,2,1,8,2,3,
{4}4/8,{8}5,6,3,2,7-4[0.3158##0.1579],1,
{4}2-5[8:1],6x-1[8:1],3-8[8:1],7x,
6b/4b,{8}6,8,4,2,6,8,
{4}4,{8}6,7,1,2,6,5,
{4}4,{8}3,1,5,7,3,1,
6,{16}2,3,{8}4,1-5b[8:1],{2}8-4[8:1],
{4}1-7[8:1],1-3[8:1],1-5[8:1],1,
{8}4,4>5[2:1],,4,,,,,{4}8<6[8:1],
8>2[8:1],8-4[8:1],8,
{8}2q4[8:5],7pp5[2:1],2,7,,,,,{4}1-7[8:1]*-6[8:1],
1-3[8:1]*-4[8:1],1-5[8:1],1,
{8}4,4>2-8qq6[2:1],,7,,,,7,
{4}8h[4:1],2h[4:1],6h[4:1],{8}4h[1:1],5h[8:7],
,,,,,,,,2b-5[8:1],
8,2,8,7-4[8:1],5,7,2,
3-8[8:1],5,3,5,6-1[8:1],,,3,
{4}2-7[8:1],{8}2,6,5-8[8:1],3,5,2,
1-4[8:1],7-2[8:1],1,7,Ch[4:1],,,6,
7-4>3[8:1],3,7,1,2-5<6[8:1],8,2,7,
8-3<4[8:1],2,8,2x,{4}1xh[4:1],7-4[8:1],
7/1-6[8:1],1/8-4[8:1],8/2-4[16:1],2,
{8}5qq8[4:3],,,2,2,1>4[8:1],{4}1,
{8},E5,{4}B1/B2,B1/B2,{8}B7,B2,
B6,B3,B5,B4,{2}E1h[4:1],
{8},5,{4}2,2,{8}3,6,
4,5,2,8,{2}4h[4:1],
{8},7,{4}8/1,8/1h[8:5],{8}7x,6x,
5x>8b[8:5],4x>7[8:5],3x>6[8:5]*>1<6b[8:5],2x<8<7<5[8:5],1x<8<4b[8:5],8x<3[8:5]*<3[8:5],7x<2b[8:5],6x>1[8:5],
{1}5bxh[1:1],
{24},,,,,,2h[24:5]/7h[24:5],,,,,D1,{96},,,{32}B8/B1,{96},,{48}B7/B2,,,C,,{16}B6/B3,{64}B5/B4,,,D5,,,,,,,,,,,,,{4}7b/3b,
7/3,{8}7/3,4,3,2,
{4}1/5,1/5,{8}1/5,4,5,6,
{4}6<8-4b[8:3],{32}1-5[8:1],E2,E3,E4,,,,,,,,,,,,,,,,,{8}2/7>1-5b[8:3],
{32},,,,2-6[8:1],E3,E4,E5,,,,,,,,,,,,,{8}4x/3x,{4}3x/4x,
2/7,7/2,{8}2/7,3,6,7,
{4}8/5,8/5,{8}5/8,4,8,1,
{4}2-4[8:1],1-5[8:1],8-6[8:1],2<7V53qq5[8:7],
{8}7xh[4:1],,,7,6-1[8:1],7,{4}6,
{8}4bx/8x,Cf,{4}2/6,{8}2,4,6,8,
{4}1/7,1/7,{8}1,3,5,7,
{4}2qq5b[8:3],{32}8-4[8:1],E8,B7,B6,,,,,,,,,,,,,{8}3/6,2qq4b[8:3],
{32},,,,7-4[8:1],B7,C,B3,,,,,,,,,,,,,{8}6/3,{4}3/6,
4-2[8:1]/5-7[8:1],5/4,{8}1,8,2,7,
{4}3-8[8:1]/6-1[8:1],3/6,{8},3,2,1,
{4}7-5[8:1],3-1[8:1],{8}4,4qq8[1:1],,7,
,7,6,7,5<8[8:1],6,{4}5,
{1}2bxh[1:2]/7xh[1:2],
{4},,,,,5/4,
4/5,5/4,
4/5,4/5,{8}5/4,,,7/2,
{4}7b/2-4<5[8:1],2b/7-5>4[8:1],7b/2-5[8:1],2b/7-4[8:1],
7b/1-3<4[8:1],1b/8-4[8:1],8b/1-5[8:1],1b/8-6>5[8:1],
8b/2>3-5[8:1],2b/6x-8>1[8:1],6b/2<1-7[8:1],2b/6-4>3[8:1],
6b/2-5>4[8:1],2b/6-1<8[8:1],{2}6b,
{1}2v8v6v4v2[4:15],
{32}C,B8,{16}A8,{4},,,{16},,{32}C,
B6,{16}A6,{4},,,{16},,{32}C,
B4,{16}A4,,,,,,,,,,,,,,,{1}6v8v2v4v6b[8:29],
{32}C,B8,{16}A8,{4},,,{16},,{32}C,
B2,{16}A2,{4},,,{16},,{32}C,
B4,{16}A4,,,,,,,,,,,,,,,{4}5bh[8:1],
5h[8:1],{8}4-8[8:1],6-2[8:1],4,6,
{4}1bh[8:1],1h[8:1],{8}8v6[8:1],2v4[8:1],{32},,,,,,,,7bxpp1-6[8:3],
B7,C,B3,,,,,2bx-5[8:1],B2,C,B6,,,,,,B8/B3,B7/B4,E7/E5,,,,,,,,,7bxpp4[8:3],B7,C,B3,
,,,,2bx-5[8:1],B2,C,B6,,,,,E3/E7,B6/B3,{16}B5/B4,,,{8}3/6,{4}6/3,
7bh[8:1],8h[8:1]/1-3[12:1],{8}1-5[8:1],8-6[16:1],1,8,
{4}4bh[8:1],1h[8:1]/8<6[12:1],{8}8p4[8:1],1-5[8:1],8,1,
{4}6b>1[4:1],1b<5[4:1],5b>2[4:1],2b<8<6[8:3],
{2}5b>1b[8:1],{8}7-5[8:1],5-1[8:1],{4}1-3[8:1],
4bh[8:1],4h[8:1],{8}5q1[8:1],3-7[8:1],5,3,
{4}8bh[8:1],8h[8:1],{8}1pp3[8:1],7qq5[8:1],1,7,
{32}2bxq4[8:3],E3,B4,A5,,,,,7bx-4[8:1],B7,C,B3,,,,,,B6/B2,B5/B3,E5/E4,,,,,,,,,2bxqq5[8:3],B2,C,B6,
,,,,7bx-4[8:1],B7,C,B3,,,,,E7/E3,B3/B6,{16}B4/B5,,,{8}6/3,{4}3/6,
2bh[8:1],1h[8:1]/8<6[12:1],{8}8v5[8:1],1-3[16:1],8,1,
{4}6bh[8:1],8h[8:1]/1>3[12:1],{8}1q5[8:1],8v6[8:1],1,8,
{4}4b<8[4:1],8b>4[4:1],{8}4b<7[4:1],5b>1b[4:1],,,,7bx-5[8:1],
8bx-2[8:1],7bxp3[8:1],8bxq4[8:1],7bx,{4}8bx,
8-2[4:1],2-7[4:1],7-3[4:1],3-6[4:1],
6-4[4:1],{8}4-7[8:1],3-8-4b[4:1],,,,,{4}3x-6[4:1],
6-1[4:1],1-4[4:1],4-7[4:1],
7-2[4:1],{8}2x-5[4:1],1x-6b[8:1],,,,,{4}1>4[8:1],
8<5[8:1],1-5[8:1],8-4[8:1],
1-3[8:1],{8}8-6[8:1],8-4[8:1],,,,,8/1-5[8:1],
2,1/8-4[8:1],7,{4}8/1q5[8:1],{8}8-3[8:1],8-5[8:1],
,E4h[8:7],,E3h[8:5],,E6h[8:3],{4}E7h[4:1],
{1}Cf/E1/E8/E2/D1/A8h[2:3]/A1h[2:3],
{4},,,1-7<6-2>3-5-1[1:1],
{1}1b,
{8},,,,,,,,6/4,
8,6/4,2,6/4,8,6/4,2,
5,6v8-4[8:5],7,6,,4bh[8:3],,,,,3/5,
1,3/5,7,5/3,1,
2-6-2[2:1],8-4-8[2:1],2,8,,,,,{4}Cf/E8/E2/E4/E6,
C,C,C,
E8/E2,E2/E8,E8/E2,E2/E8,
C,C,C,C,
{8}B5,B4,B5,B4,B5,B4,B5,B4,
{4}Cf/E1/E7/E5/E3,C,C,C,
B7/B2,B7/B2,B7/B2,B7/B2,
C,C,C,C,
B5,B4,B5,B4,
E
