&title=Kill 'Em All
&artist=Massive New Krew
&first=0.03
&des_1=歌曲推荐
&des_2=歌曲推荐
&des_3=歌曲推荐
&des_4=歌曲推荐
&des_5=歌曲推荐
&lv_5=14
&des_6=歌曲推荐
&des_7=歌曲推荐
&des=歌曲推荐
&inote_5=(185){4},,{2},{32}1b,8/2,7/3,6/4,{8}5s1[8:5],
{4},,,7s3[4:3],
,,,1s5[4:3],
,,,6-1-7-3[2:1],
{2},{4}2-5[8:1],6h[4:1],
{8},6h[4:1],{4},6-4[8:1],{8}6,3h[4:1],
,4,{4}3h[4:1],4-7[8:1],1h[4:1],
{8}8,2h[4:1],,1,{4}3h[4:1],{8}2<5s1[8:5],4h[8:3],
{2},{4}2-6[8:1],2,
{8}7,{16}6,5,{8}6,7,{4}4/8-4[8:1],{8}3,2,
2,{16}3,4,{8}3,5,{4}4/6<1[8:1],5,
{8}3,{16}2,1,{8}2,8,{4}1/7V53[4:1],{8}7,8,
1,2,1/2,8/3,{4}4/7-3[8:1],7/1,
{8}2,{16}3,4,{8}3,2,{4}5/1-5[8:1],{8}6,7,
7,{16}6,5,{8}6,4,{4}5/3>8[8:1],4,
{8}6,{16}7,8,{8}7,1,{4}8/2-6-4[8:3],{8}2,1,
8,7,8/7,6/1,{4}2/5-8[8:1]b,4/5bqq2[2:3],
1,8,8,7,
7,6,6,5/4,
5/4,4/3,3/4,5/4,
5/4,6/5,6/7-4[8:1],8/7pp2[2:3],
1,2,3,4,
4,5,5,4/5,
4/5,3/4,3/2q6[8:1],{8}1/2,8p4[8:1],
7,8/1,2,3,4,5,3x/7x-5[8:1],3,
3,3,3x/4x-7[8:1],3,3,3,2x/8x<5[8:1],2,
2,2,2x/4x<7[8:1],2,2,2,8x/4x-2[8:1],8,
8,8,7x/4x-1[8:1],7,7,7,6x/3x-1[8:1],6,
6,6,5x/3x-8[8:1],5,5,5,7h[16:1]/1xh[16:1],1h[16:1]/7h[16:1],
4h[16:1]/3h[16:1],3h[16:1]/4h[16:1],7h[16:1]/5h[16:1],7h[16:1]/5h[16:1],1h[16:1]/2h[16:1],2h[16:1]/1h[16:1],{16}8,1,7,2,
6,3,5,4,6,3,7,2,8<1[2:1],1,8,1,{4}7h[4:1],
,{16}8,7,6,5,4,3,2,1,{4}8h[4:1]/4h[4:1],
,{8}7bx/6bx,2bx/3bx,{4}8b/1b,3/1-4[8:1],
7/1-6[8:1],3/1-3[8:1],{8}1-7[8:1],6,1-3[8:1],4,
1-5[8:1],5,{4}1>4[8:1],{8}6/1,7,{4}8-5[8:1],
2/8-3[8:1],6/8-6[8:1],{8}8-2[8:1],4,8-6[8:1],5,
8-4[8:1],4,{4}8<5[8:1],{8}8/3,2,{4}1>4[8:1],
7/1<6[8:1],3/1-3[8:1],{8}1-7[8:1],5,1>3[8:1],4,
1-5[8:1],5,{4}1>4[8:1],{8}6/1,7,{4}8<5[8:1],
2/8>3[8:1],6/8-4[8:1],{2}8bV27[8:3]/4bV63[8:3],
{4},{16}1,1,{8}8,2,1,{4}8/3-5[8:1],
3>1[8:1]/8-4[8:1],3/8-6[8:1],{8}8-2[8:1],3,8-6[8:1],5,
8-3-7-5[8:3],4,{4}8/2h[8:1],2h[8:1],1-3[8:1],
6-1[8:1]/1-5[8:1],1/6-4[8:1],{8}6-8[8:1],1,6-4[8:1],3,
6-8-4-1[8:3],2,{4}6/3h[8:1],3h[8:1],8-6[8:1],
8-4[8:1]/3-8[8:1],8/3-5[8:1],{8}3-1[8:1],8,3-5[8:1],6,
3-8-2-6[8:3],7,{4}3/5xh[8:1],5h[8:1],7-5[8:1],
7>1[8:1]/2-6[8:1],7/2-4[8:1],{8}2s6[8:3],7,{2},{16}8x-4[8:1],
1x,{8}7x,{4}8bx/Cf,2h[1:1],
{2}4,{4}4,5h[1:1],
{2}3,{4}3,4h[1:1],
{2}6,{4}6,7h[4:3],
{2}5,{4}5,{8}6/4,6,
5/3,3,4/2,4,1/5,1,2/8,8/2,
7/3,3/7,6/4,6/4,5/3,6/2,1h[16:1],8h[16:1]/2h[16:1],
3h[16:1]/7h[16:1],4h[16:1]/6h[16:1],8h[16:1],7h[16:1]/1h[16:1],6h[16:1]/2h[16:1],5h[16:1]/3h[16:1],{4}4-7-3-5-1[2:1]b,
{2},{4}7b,2/8-2[8:1],
{8}6/8,7,{4}8>3[8:1],{8}6/8,7,{4}8V24[16:3],
{8}6/8-4-7-5[8:3],7,8,3,3,3,{4}1<7[8:1],
{8}3/1,2,{4}1-6[8:1],{8}3/1,2,{4}1<5[16:3],
{8}3/1-4-6-2[8:3],2,1,7,7,7,{4}8>3[8:1],
{8}6/8,7,{4}8<5[8:1],{8}8/2,1,{4}8>3[8:1],
{8}6/8-6-2-4[8:3],7,8,5,5,5,{4}5V71[16:3],
{8}3/5,4,{4}5V31[16:3],{8}7/5,6,{4}5h[4:1],
{8}7,6/1h[4:1],,8,{4}3b/7b,{24}2x/8x>3[8:1],7,6,5h[8:1],{12},{8}8,
{24}5x,6,7,{8}8-4[8:1],3-8[8:1],8,3,6-1[8:1],2-6b[8:1],
6>1b[4:1],2,7,7,7,7,{24}8x/1x-6[8:1],2,3,4h[8:1],{12},{8}1,
{24}4x,3,2,{8}1-5[8:1],1,7-4[8:1],7,3-8[8:1],3,
5-2-4-7b[8:3],5,1,1,1,1,{24}1x/8x,2,3,4h[4:1],{12},{8}1,
{24}1x,8,7,{8}6-4[8:1],3,6-8[8:1],1,6-4[8:1],2-6b[8:1],
6-8-3b[4:1],2,5,5,5,5,{24}6x/2x,3,4,5h[4:1],{12},{8}8,
{24}8x,7,6,{8}5h[8:1],3,4/2,1,{4}8/3s7[16:3],
{8},5s1[16:3],{4},2w6b[8:1],2b>8pp3[4:11],
{1},,,{8},2,
3,4,5,6,{4}7/4>2[8:1],
5,{8}4<6[8:1],2,{4}2,8>2[8:1],
7,{8}8<5[8:1],2,{4}2,4>1[8:1],
5,{8}4<7[8:1],2,{4}2,{8}4,4,
4z8[8:3]b*V62-8[8:3],4,{2},{4}6bx,
{8}7/4,{16}6,5,{8}6,7,{4}3/8-2-5[4:1],{8}6,7,
8,8,7,7,{4}5/6<1[8:1],{8}4,3,
2,2,{4}1>4[8:1],{8}8,7,6,6,
{4}4/5V73[4:1],3-8[8:1],8-4[8:1],4,
{8}2,{16}3,4,{8}3,2,{4}6/1V74[4:1],{8}3,2,
1,1,2,2,{4}4/3>8[8:1],{8}5,6,
7,7,{4}8<5[8:1],{8}1,2,3,3,
{4}5/4V26[4:1],6-1[8:1],5-8b[8:1],5qq6[2:3],
1,8,8,1,
1,2,2,4/3,
4/3,5/4,5/4,5/6,
4/5,3/4,3/2-5[8:1],1/2qq3[2:3],
8,7,6,5,
5,4,4,5/4,
5/4,6/5,6/7-4[8:1],{8}1/7,2-5[8:1],
3,8/2,7,6,5x,4,
6x/3x-1[8:1],6,
6,6,6x/8x-3[8:1],6,6,6,7x/4x>1[8:1],7,
7,7,7x/8x>3[8:1],7,7,7,4x/8x<5[8:1],4,
4,4,3x/8x-4[8:1],3,3,3,2x/7x<4[8:1],2,
2,2,1x/7x-3[8:1],1,1,1,8h[16:1]/4h[16:1],1h[16:1]/5h[16:1],
2h[16:1]/6h[16:1],3h[16:1]/7h[16:1],1h[16:1]/8h[16:1],7h[16:1]/2h[16:1],6h[16:1]/3h[16:1],4h[16:1]/5h[16:1],{16}3,4,2,5,
1,6,8,7,1,8,2,7,3>4[2:1],6,4,5,{4}3h[4:1],
,{16}3,2,1,8,7,6,5,4,{4}3h[4:3]/7h[4:3],
,{4},,C/E4,
C/E7,C/E3,{8}C,E2,C,E3,
C,E4,B7/E7,E3/B3,E1/B8,B4/E5,{16}8,8,1,1,
7,7,2,2,6,6,3,3,5,5,4,4,{4}6<1[8:1],
5>2[8:1],{8}8x-4[8:1]b,7,{4}8b/1b,{24}1x,2,3,4h[8:1],{12},{24}1x,
2,3,4h[8:1],{12},{24}1x,2,3,4h[8:1],{12},{16}7,5,6,5,8,4,5,4,
1,3,4,3,8,4,5,4,7,5,6,5,{4}8-6[8:1],
1-5[8:1],2,{16}3,4,3,4,1,7,1,7,
2,8,2,8,5,6,4,7,3,8,{8}2,{24}8x/1x,7,6,5h[8:1],{12},{24}8x,
7,6,5h[8:1],{12},{24}8x,7,6,5h[8:1],{12},{16}2,4,3,4,1,5,4,5,
8,6,5,6,1,5,4,5,2,4,3,4,{4}1-7[8:1],
2-6[8:1],3,{8}3>5[2:1],5,{4}4h[8:1],
4h[8:1],4h[8:1],{8}1b/2b,8,{24}7x/1x,6,5,4h[8:1],{12},{24}8x,
7,6,5h[8:1],{12},{24}1x,8,7,6h[8:1],{12},{16}3,5,3,5,4,5,4,5,
5,5,5,5,2,5,5,5,8,5,5,5,{4}3-1[8:1],
3b/4-8[8:1],4b/5,{16}7,3,7,3,6,2,7,1,
8,8,8,8,7,1,6,2,5,3,{8}6,{24}2x/8x,3,4,5h[8:1],{12},{24}1x,
2,3,4h[8:1],{12},{24}8x,1,2,3h[8:1],{12},{16}6,5,6,5,8,1,8,1,
4,3,4,3,8,1,8,1,7,2,6,3,{4}5-1[8:1],
2-6[8:1]/5b,2b/8-4[8:1],{4}1/8b,2bx/3bx,
7bx/6bx,{8}8b/1b-4[8:1],4b/5b-8[8:1],1,5,{4}A2/B2/B6/A6/Cf,
E
