&title=アンチユー
&artist=Chinozo / 巡音ルカ / MORE MORE JUMP!「プロジェクトセカイ カラフルステージ! feat. 初音ミク」
&first=0.5
&des=RinA
&cabinet=DX
&clock_count=4
&des_5=Rin
&lv_5=13.0
&inote_5=(129){4},,,,5/6h[2:1],
B2,5h[2:1],B2,
6h[2:1],5>2[8:1],{2}5<8[8:1],
{4}3h[2:1],B7,4h[2:1],B7,
3h[2:1],1-6[8:1],{2}1-4[8:1],
{4}6h[2:1],B2,5h[2:1],B2,
6h[2:1],8-4[8:1],,6,
{16}7h[16:3],{8},{16}6h[16:3],{8},5,{4}2h[4:1],3h[4:1],
{8}4,4,5,5,6,6,7,7,
{16}8,1,8,1,8,1,{8}8,{2}7-4[8:1]/1-4[8:1],
{8}5,{16}3,4,{8}2,{16}4,3,{8}5,{16}3,4,{8}2-5[8:1],1,
2/7-4[8:1],8,7/2-5[8:1],1,{4}2,{16}6,5,{8}6,
{4}7h[4:3],{16}4,3,{8}2,{16}1h[8:3],{8},,,{16}6,
{8},2/3,5/6,3/4,{4}5h[4:1],3,
{8}4,{16}6,5,{8}7,{16}5,6,{8}4,{16}6,5,{8}7-4[8:1],8,
7/2-5[8:1],1,2/7-4[8:1],8,{4}7,{16}3h[8:1],{8},{16}4,
{8}5,7/5,5/4,2/4,5/4,7/5,5/4,2/4,
8/1,7/6,5/4,3,{4}2V48[16:3],8w4[8:1],
,B4/E5/E4,5h[4:1],E2/B2/E3,
4h[4:1],E1/B8/E8,{8},3,4/E7/B6/E6,3,
{4}2-7[8:1],2/6-3[8:1],{16}6/2,{8},{16}2,{8},2,
3/4,5/4,6/5,5/4,{2}4/3p5[4:1],
{8},6,5,6/5,4h[16:3]/7h[16:3],{4},{8}5,
6,5/4,3p6[8:1],5/4,{2}6q3[8:1],
{8},5,5/4,4,6h[16:3]/3h[16:3],{4},{8}6,
7,8/1,{4}7>1[8:1]/2>4[8:1],{2}7-5[8:1]/2-8[8:1],
{8},4,3/4,3,5h[16:3]/2h[16:3],{4},{8}3/4,
5/4,6/5,7/4,8/3,{4}C,3,
{16}2h[16:3],{8},{16}3h[16:3],{8},4,5,5,6>2[4:1],7,
6,{4},{8}1,8/2,7/3,6/4,5,
{4}4V28[4:1]/3,8V64[4:1],4>8[4:1],8<4[4:1],
{8}4V26[4:1],2h[8:1],,,3,4,5,4,
5,{16}3x,4x,{8}5x,{16}4x,5x,{8}6x,{16}5x,6x,{8}7x,{16}6x,7x,
{4}8bx-4[8:1],1b-5[8:1],{2}6b-2[8:1],
{4}3h[4:1],4,{2}2h[4:1]/5h[4:1],
{16}3h[4:1]/4h[4:1],{8},,,{16}2bx,{8},3,4,3,
4,{16}4,3,{8}4,{16}4,3,{8}4,4/2,3/5,6/4,
{1}5h[8:7]/7-2[8:9],
5-2[8:1],
{16}1,{8},{16}1,8,{8},{16}8,7,{8},{16}7,{4}6-1[8:1],
5-2[8:1],1-6[8:1],1/2,{8}4,4,
5,{16}4,5,4,6,3,6,{8}3,5/4,,5,
5/4,3/4,{16}2,2,,1,{8}1,8,{4}7>5b[1:1],
{2},,,6-1[8:1]/4-1[8:1],
{8}8b,{16}2,1,{8}3,{16}1,2,{8}8,{16}2,1,{8}3-8[8:1],4,
3/6-1[8:1],5,6/3-8[8:1],4,{4}3,{16}7,8,{8}7,
{4}6h[4:3],{16}1,2,{8}3,{16}4h[8:3],{8},,,{16}7,
{8},3/2,8/7,2/1,{4}8h[4:1],2,
{8}1b,{16}7,8,{8}6,{16}8,7,{8}1,{16}7,8,{8}6-1[8:1],5,
6/3-8[8:1],4,3/6-1[8:1],5,{4}6,{16}3,{8},{16}3,
4/3,{8},{16}4,5/4,{8},{16}5,{8}6/5,7,6,5,
{4}6h[4:1],8,{2}7v4[8:1]/1v4[8:1],
{8}5,{16}3,4,{8}2,{16}4,3,{8}5,{16}3,4,{8}2-4[8:1],1,
2/6-8[8:1],5,6/2-4[8:1],1,{4}2,{16}6,5,{8}6,
{4}7h[4:3],{16}8,1,{8}2,{16}3h[8:3],{8},,,{16}6,
{8},1/3,4/6,3/5,{16}4h[16:3],{8},{16}5,{8},5,
4,{16}6,5,{8}7,{16}5,6,{8}4,{16}6,5,{8}7-1[8:1],6,
7/3-5[8:1],2,3/7-1b[16:1],6,{4}7,{16}3h[8:1],{8},{16}4,
{8}5,7/5,5/4,2/4,5/4,7/5,5/4,2/4,
8/1,7/6,5/4,2/4,1/8,7/5,5/4,6/3,
{4}7-4[8:1],3-8[8:1],6-1[8:1],1w5[8:1],
E
