&title=ØƵ
&artist=Hommarju ft. Mayumi Morinaga
&first=0
&des=yama
&clock_count=4
&lv_5=14
&des_5=yama
&inote_5=(200){4},,,,,,,,(100)8<1[0.6##2.2226]/1>8[0.6##2.2226],
(120),(140),(160),
(180),(200),(210),(215),
(220){12}2,2,8,8,{48},,,,,,,,{16}3,3h[16:3],,4,{8}4h[8:1],{24}2,,2,
,4,{48},,{16}3,4,(90){32}2,(130),(150),(180),(200),(210),(220){16},{12}6,6,5,5,{48},,,,,,,,{16}7,
7h[16:3],,5,{8}5h[8:1],{24}6,,6,,5,{48},,{16}6,5,(350){8}7,(340),
(320),(190){16},(250),(220){12}2,2,5,{4}5,{16}1,1h[8:1],,4,
{8}4h[8:1],{24}3,,3,,4,{48},,{16}2,4,(90){32}2w6[0.3741##0.2],(130),(150),(180),(200),(210),(220){16},(150){4}2b<2[0.4##1.4521]*>2[0.4##1.4521],
(170),(180),(190),(200),
{16},,,,,2h[#1.158333],,,,,,,,,,,(180){4},
(160)4h[#0.7767859],{8},(140),(160){4}5>8[0.375##1.4552],
,(165)6,,(170)7<1[0.3529##1.372],
,(175)1,,(180)8<3[4:3],
,2,,1V35[2:1],
,6,,7V51[2:1],
{8},4,,,{4}3,2V48[2:1],
{8},8,,,{4}7,6V84[2:1],
{8},1,,,{4}2,3,
4/5,5-1[8:1]/6-3[8:1],,2V46[0.3333##0.982],
,(185)6,7,(190)8V64[0.3158##0.6235],
,(195)4,3,(200)1-4[2:1],
{8},5,{4}5,6,7p1[2:1],
{8},4,{4}4,3,2>5[0.3##0.4463],
{8},7,(205){4}7,6,(210)4/5-8[0.2857##0.2857],
{8},3,(215){4}3,1h[#0.8245277],(220)8<3[2:1],
,,2,1/8,
7/6,5/4,2/3,{12}8,1,8,
2,1,2,8,1,7,{6}1h[6:1],{12}6,2,4,2,
5,4,5,4,6,5,{6}6b,4h[6:1],{12}5,4,
5,3,4,3,5,4,{4}6,{16}7,8,7,8,
{8}7,{16}2,1,2,1,{8}2,{4}8b,{16}3,4,3,4,
{8}3,{16}5,4,5,4,{8}5,{16}2h[8:1],,,,,6,5,6,
5,6,,4,5,4,5,4,7h[8:1],,,3,5,3,5,4,
5,4,6,4,6,4,{8}6h[8:1],5,7,{16}1,2,3,4,
5,6,7,8,1,2,3,4,5,6,7,8,{12}1x,,3x,
,5xw1[6:1],,,,,,,,{4}6-1[8:1],
{8}6/4,5-3[8:1],,5,{4}6h[4:1],1-3[8:1],
{8}1,4-8[8:1],,4,{4}1h[4:1],7<4[8:1],
{8}4,3-6[8:1],,7,{4}7h[4:1],5-2[8:1],
{8}6,6-8[8:1],,2,{4}2h[4:1],8-4[8:1],
{8}2,2-4[8:1],,5,{4}6h[4:1],5-1[8:1],
{8}7,7-5[8:1],,2,{4}3h[4:1],4<8[4:1],
{8}2,2-5[8:1],,1,8,7,{16}4,6,4,6,
4,5,3,5,{12}2x,,1x,,1x,,{4}2-4[4:1],
4V63[2:1],6,7,8-6[4:1],
6V47[2:1],4,2,1-4[4:1],
4V28[2:1],5,6,7-4[4:1],
4V68[2:1],3,2,1-5[2:1],
8,8,{8}7,7,{4}6V48[2:1],
4,{8}3,2,{4}1,(210){16}1,8,1,8,
2,7,2,7,(200)3,6,3,6,(180)4,5,4,5,3,4,2,6,
(170)5,7,3,4,(160)1x,6x,5x,8x,(140)4x,1x,3x,5x,(170){4}2x>8[0.3529##0.8529],
,(180)6,,(190)1>5[0.3158##0.9158],
,(200)4,,6V83[4:3],
,3,,4V61[4:3],
,3,,2-4[0.3##0.4463],
{8},5,(205){4},6,(210)7-1[0.2857##0.4252],
{8},2,(215){4},3,(220)4-1[2:1],
{8},5,,,{4}6,7/1,
8/1,2h[4:1]/3h[4:1],,2x/4xh[8:3],
{8},2,(225){4}2x/4xh[4:1],3,(230)3x/5xh[8:3],
{8},4,(235){4}4x/5xh[4:1],4,(240)5x/6xh[8:3],
{8},5,{4}5x/6xh[4:1],7,8xh[4:1],
,7xh[4:1]/1xh[4:1],,6x/2x,
6/2,(245)3x/5x,5/3,(250)4x/5x,
6/5,(235)5x/6x,6/4,(230)6x/4xh[#0.819313],
(220)6x,(210)5x,(180)5x,(170)5x,
(190)5xw1[0.3158##0.3],(200)5x,(210),(220){16}3,4,,3,
{8}4,{16}2,5,,3,{8}4,{16}3,4,{8}2b,{16}6,5,,6,
{8}5,{16}7,4,,6,{8}5,{16}6,5,{8}7b,{16}1,8,,1,
{8}8,{16}2,7,,1,{8}8,{16}1,8,{8}2b,{16}6,5,7,4,
{8}8,{16}3,4,2,5,{8}1,{16}7x,5x,{8}6x,{16}3h[16:1],4,,2h[16:1],
{8}4,{16}3h[16:1],5,,2h[16:1],{8}4,{16}1,8,{8}1,{16}6h[16:1],5,,7h[16:1],
{8}5,{16}6h[16:1],4,,7h[16:1],{8}5,{16}8,1,{8}8,{4}4bx>5[16:17],
{1},{4},{16},4/5h[16:23],
{1},{4},{8},{16}2,
5,3,5,
4,6,4,7,{4}5h[2:1],,8V61[4:1],
1V35[4:1],5V73[4:1],2,1V35[4:1],
5-1[4:1],1-7[8:1],6,4<7[8:1],
3-1[8:1],8-4[8:1],2-5[8:1],2/5,
{8}6,5/6-1[8:1],,2,{4}2h[4:1],{8}1,{16}3,4,
{8}3,1b/8b,,6/5,{4}6/5,{8}7/2,{16}3,5,
{8}4,8b/1b,,6/5,{4}4h[8:1]/6h[8:1],{8}3/6,{16}4,5,
{8}4,6/3,,8/1,{4}7h[8:1]/2h[8:1],{12}2,4,2,
7,5,7,1x,,1x,,1x,,{4}6x/1xV38[4:1],
8V64[4:1],4V26[4:1],7,8V64[4:1],
4-8[4:1],8-2[8:1],3,5-1[8:1],
6-8[8:1],2-4[8:1],1<6[8:1],1/5,
{8}4,5/4-1[8:1],,8,{4}8h[4:1],{8}1,{16}7/2,6/3,
{8}5/4,8b/1b,,2/7,{4}7/2,{8}1/8,{16}2/7,3/6,
{8}4/5,1b/8b,,2/7,6/3,4/5,{16}3,4,2,4,
{8}3h[8:1],{16}6,5,7,5,{8}6h[8:1],4,4,{16}3,5,3,5,
2,6,2,6,1,7,1,7,{24}8x,1x,2x,3x,4x,5x,{4}6bxh[4:1],
{16},,,,1,1h[16:3],,7,{8}7h[8:1],{24}5,,5,,7,{48},,{16}5,6,
(90){32}4,(130),(150),(180),(200),(210),(220){16},{12}3,3,4,{4}4,{16}2,2h[16:3],,4,
{8}4h[8:1],{24}3,,3,,4,{48},,{16}2,4,(350){8}1,(340),(320),(190){16},(250),
(220){12}7,7,5,5,{48},,,,,,,,{16}8,8h[8:1],,5,{8}5h[8:1],{24}6,,6,
,5,{48},,{16}7,5,(90){32}7w3[0.3741##0.1364],(130),(150),(180),(200),(210),(220){16},{4}7b>7[0.2727##1.4836]*<7[0.2727##1.4836],(225),
(230),(240),(250),(255),
(260),(265),(270),(280)7h[#0.6211777],
(290),(300),(110){2}C,
E
&lv_6=14+
&des_6=草泥马不对音了开始报复社会
&inote_6=(200){4},,,,,,,,
(100)1b>7[16:15],
(120),(140),(160),(180),(200),(210),(215),
(220)
{12}2,2,8,8,,,
{16}1,7h[8:1],,3,8h[8:1],,
{12}5,7,4,
{16}6v1[8:1],,
{32}(90),(130),(150),(180),(200),(210),
(220){16},
{12}2,2,8,8,,,
{16}7,1h[8:1],,5,2h[8:1],,
{12}7,3,5,
{16}2v5[8:1],,
(350){8},(340),(320),(190){16},(250){32},
(220){12}6,6,4,4,,,
{16}7,3h[8:1],,6,1h[8:1],,
{12}5,2,6,
{8}4v1[8:1],
(90){32},(130),(150),(180),(200),(210),(220){16},
(150){4}7h[4:1],
(170){8}2,3,
(180){12}4,5,6,
(190){16}5,4,3,2,
(200){16}1,2,3,4,
{16}5,6,7,8,
{16}1,5b-1[4:5],,,{4},,
(180),
(160)2h[#0.8036],(140){4},
(160){2}8<3[4:4],
(165){2},
(170){2}1p4[4:4],
(175){2},
(180){1}6>1[4:4],
{1}4p7[4:4],
{16}6z2[4:3],,,6,,,,,,,,,,,,,
{16}1s5[4:3],,,1,,,,,,,,,,,,,
{16}7s3[4:2]*v4[4:2],,,,,,,,,,,,,,,,
{1}3h[4:3]/4h[4:3],
{4}5h[4:1]/2,3,
(185){4}4h[4:1]/6,7,
(190){4}8h[4:1]/2,3,
(195){4}4h[4:1]/7,6,
(200){4}4/5h[4:1],2,6/8h[4:1],4<1[4:3],1,2,3,4V25[8:3],2h[2:1],,
(205){4}4h[4:1],1V38[8:3],
(210){4}3h[2:1],,
(215)7h[4:1],5V36[8:3]*V74[8:3],
(220){4},,5-1[8:1],,
{24}2b/8b,3b/7b,4b/6b,5bs1[4:1]*z1[4:1],,,,,,,,,,,,,,,,,,,,,
{24}2,8,
{12}2,7,3,6,4,5,2,7,1/8,,3,
{24}7,8,
{12}7,2,6,3,5,2,4,1,2/5,,6,
{24}4,5,
{12}4,7,3,8,2,7,1,6,8h[4:1],,,
{16}7,6,5,4,3h[8:1],,7,8,1,2,3h[8:1],,
{24}1,8,7,6,,,
{16}2b,5,3,4,2,5,3,4,2,5,3,4,2h[8:1],,1,,
{16}8b,4,7,5,8,4,7,5,8,4,7,5,8h[8:1],,2,,
{16}3b,6,4,5,3,6,4,5,3,6,4,5,3h[8:1],,7,,
{12}6b,5,6,4,5,4,5,5,5,5,5,5,
{6}5,4/6,7-4[12:1]/8-3[12:1],7/8,,,
{8}2h[8:1],5,2h[8:1],6,3h[8:1],6,3h[8:1],7,
{8}6h[8:1],3,6h[8:1],2,7h[8:1],3,7h[8:1],4,
{8}5-2[8:1],5,6,,5-8[8:1],5,4,,
{4}3<7[4:1],7>3[4:1],3-7[4:1],,
{8}5h[8:1],8,6h[8:1],1,7h[8:1],2,8h[8:1],3,
{8}4h[8:1],8,3h,7,2h[8:1],6,1h[8:1],5,
{8}8>3[8:1],,4<7[8:1],,1-5[8:1],,,,
{12}4b/6b,5,5,5,5,5,4/6,,5/3,,4/2-6[8:1],,
{8}5h[2:1],,,
{16}7,8,1,2,3,4,6-2[16:3]/5,,,,
{8}3h[2:1],,,
{16}1,8,7,6,5,4,3-5[8:1]/2-6[8:1],,,,
{8},,,
{16}7,8,1,2,3,4,5-3[8:1]/6-2[8:1],,,,
{8},,,
{16}1,8,7,6,5,4,3-5[8:1]/2,,,,
{8}1,1,1,1,6,6,6,6,4/7,4,4/7,4,3/8,8,3/8,8,
(210){16}2,1,2,1,2,1,2,1,
(200){16}3,8,3,8,
(180){16}3,8,3,8,4,7,4,7,
(170){16}4,7,4,7,
(160){16}5,6,4,7,
(140){16}3,8,2,1,
(170){4}4bp5[8:4],,
(180){4}5s1[4:2],,
(190){4}1V38[2:1],,
(200){4}8p1[2:1],,1<4[2:1],,4qq2[2:1],,2qq8[2:1]*V46[2:1],,,,7V15[2:1],,
(205){4}5pp3[2:1],,
(210){4}3>6[2:1],,
(215){4}6p8[2:1],,
(220){4}8V25[2:1],,5V74[2:1]*v3[2:1],,,,2/5,3/6,
{12}7/4,3,2,6,5,4,
(225){12}8,1,2,7,6,5,
(230){12}4/3,2,1,5,6,7,
(235){12}5,4,3,1,8,7,
(240){12}6/4,3,2,5,4,3,1,8,7,2,1,8,5,4,3,7,6,5,8,7,6,1,8,7,3,5,3,6,4,6,
(245){12}3,4,3,6,5,6,
(250){12}2,4,3,7,5,6,
(235){12}2,3,2,7,6,7,
(230){12}1,2,3,
(220){12}4,5,6,
(210){12}3,4,5,
(180){12}6,7,8,
(170){12}5b-1[2:1],,,
(190){12},,,
(200){12}2h[2:1],,,
(210){12},,,
(220)
{16}8b,3,,8b,5,,8b,1,,8b,3,,
{32}7b,6,5,4,,,,,
{16}1b,3,,1b,5,,1b,7,,1b,5,,
{32}2b,3,4,5,,,,,
{16}7b,6,,7b,4,,7b,2,,7b,4,,
{32}6b,5,4,3,,,,,
{16}2,4,2,4,2,,7,5,7,5,7,,
{32}2/7,3/6,4/5,,,,,,
{16}3b,5,,3b,1,,3b,7,,3b,5,,
{32}3b,2,1,8,,,,,
{16}6b,1,,6b,5,,6b,1,,6b,3,,
{32}6b,7,8,1,,,,,
{4}4,
{8}3,2,
{12}1,8,7,
{16}6,5,4,3,
{16}4,5,6,5,4,3,4,5,6,5b-1[16:25],,,,,,,
{1},
{16}1,2,3,4,5,6,7,8,1h[16:8],,,,,,,,
{8}6b,6,5-1[8:1]/2-5[8:1],,2/5qq2[8:3],,7,7,
{8}8w4[8:1],,8,,1w5[8:1],,1,,
{8}3/7,2,2,6/1,5,5,
{24}2,3,4,8,7,6,
{8}3b,4b/2b,5b/1b,6b/8bV62[4:1],,6,5,,
{16}1,,3,4,3,,2/5,,8,,2,1,2,,3/8,,
{16}6,,3,5,3,,2/6,,5,,7,1,7,,2/6,,
{16}7,,4,5,4,,3,,7,6,5,4,8,1,2,3,
{12}6b,4,4,7b,8,8,5b,,3b/2b,,4b/6b,,
{8}3,3,4v7[8:1]/2,4,3qq8[8:3],,6,5,
{8}4-7[8:1]*-6[8:1],,4,,4-1[8:1]*-2[8:1],,4,,
{8}3/8,4,7,5,2/6,7,4,8,
{8}2>5[8:1],2,1<6[8:1],1,
{16}4,3,2,1,8,7,6,5,
{16}4/7,,6,5,6,,3/8,,2,1,2,,4/8,,3/7,,
{16}2/6,,3,4,3,,2/6,,7,8,7,,2/6,,1/5,,
{16}4/8,,1,2,3,,4/8,,1,2,3,,4/8,,4/8,,
{16}1b,5,1,5,2b,6,2,6,
{24}3b,4,5,6,7,8,1bs5[16:20]/5bs1[16:20],2/6,3/7,4/8,5/1,,
{1},
{4},
(90){32},(130),(150),(180),(200),(210),
(220){16},
{12}7,7,1,1,,,
{16}8,2h[8:1],,6,1h[8:1],,
{12}4,2,5,
{16}3v8[8:1],4,(350){8}3,
(340),(320),(190){16},(250){32},
(220){12}6,6,1,1,,,
{16}7,3h[8:1],,6,1h[8:1],,
{12}5,2,6,
{16}4v1[8:1],5,(90)
{32}4,(130),(150),(180),(200),(210),(220){16},6h[4:1],,,,
(225){8}1,8,
(230){12}2,7,1,
(240){16}8,2,7,1,
(250){16}8,2,7,1,
(255){16}8,2,7,1,
(260){16}8,2b<7[1:5],,,
(265){4},
(270){4},
(280){4}1h,
(290){4},
(300){4},
(110){2}8h,
E
