&title=Death Doll
&artist=SHIKI
&first=-0.531
&des=LittleTom
&lv_5=14
&inote_5=(184)
{1},
{8},,,,,2,1-5[8:1],8,
{8}7pp4[4:1],,3h[8:1],,,2,1-5[8:1],8,
{8}7p4[4:1],,3h[8:1],,,2,1-5[8:1],8,
{8}7,7,6,5<8[8:1],,4,3,2,
{8}1-5[8:1],7-3[8:1],1,7,,4,3,2,
{16}1,,1,,7,8,7,8,7,,1/6,,
{16}2,1,2,1,3,,8/4,,7,8,7,8,6,,1/5,,1,2,3,4,
{8}6/5h[8:1],8,2/4,1,6/5,8,3/4,1,
{16}2b,6,2,6,3,7,3,7,{32}4b,5,6,7,8,1,2,3,4,5,6,7,8,1,2,3,
{4}4-8[4:2],4,4h[4:1],,
{8}1/2,3,4,5-1[8:1]/6,,7-3[8:1],,8-4[8:1],,1>6[4:1],,8,8,,1/7,2,
{8}3-6[8:1]/8,3,1,8,7-4[8:1],7,8,1,
{4}2-5[8:1]*<7[8:1],,6-1[8:1]*>3[8:1],,
{8}8/7,6,5,4-8[8:1]/3,,2-6[8:1],,1-5[8:1],,8<3[4:1],,1,1,,8/2,7,
{16}1pp5[4:1]/6h[4:1],,,,,,7,,7,,,,4,3,2,1,
{16}8b-3[8:1]/7h[4:1],,,,,,,,2-5[8:1],,,1,2,,1,,
{16}7,8,7,8,6,,2,1,2,1,3h[4:1],,7,6,5,,
{16}4,5,4,5,3,,6,5,6,5,7h[4:1],,4,3,2,,
{16}8,1,8,1,7,,3,4,3,4,2h[4:1],,8,7,6,,
{16}4,5,3,4,2,,6,4,7,5,8,,1/2,3/8,4/7,,
{8}3h[8:3]/8h[8:3],,,,,2-6[8:1],1,2,
{8}7-5[8:1]*-3[8:1],,7,,1-3[8:1]*-6[8:1],,1,,
{16}8h[8:2]/7h[8:2],,,,,,1/6,2/5,3/4,,2,,1,,8,,
{8}7,6/5,6/5,3/4,{16}3/4,,1,8,1,8,1,8,
{16}2b/7h[4:4],,,4,,,1,,,5,,,8,,6,,
{16}4h[4:4],,,1,,,3,,,8,,,5,,7,,
{16}8h[4:4],,,1,,,6,,,2,,,5,,3,,
{16}4h[4:4],,,3,,,5,,,2,,,6,,1,,
{16}8b,,1,7,1,,1,6,1,,1/5,,1/4,,1/3,,
{16}8b/1b,,7,8,7,,7,6,7,,7/5,,7/4,,7/3,,
{16}7/2b-5[16:1],,,8-4[16:1],,,1-5[16:1],,,7-4[16:1],,,2b,,2b,,
{16}6-1[16:1],,,4-8[16:1],,,5-1[16:1],,,3-8[16:1],,,7b,,7b,,
{4}1qq4[4:2]/6pp3[4:2],,,,
{32}2/5,,,,1b,2,3h[16:3],,,,,,7b,6,5h[16:3],,,,,,2b,3,4,,8b,7,6,,,,,,
{8}1/8-4[8:1],7,6,5,3-6[8:1],2,1,8<5[8:1],
{8},8/3-7[8:1],,3/1p5[8:1]*q5[8:1],,,,6<1[8:1],
{32},,,,2,3,4,5h[32:5],{8},,,1/2,3/4,5/6h[4:1],
{16},,1,2,3,,8,7,6,,1,2,7,6,2,3,
{8}4b/8b>3[8:1],7,6,5,4-7[8:1],3,2,1-5[8:1],
{8},1/6-2[8:1],,6/8w4[8:1],,,,2h[4:1]/6,
{16},,7,8,7h[8:1],,6h[4:1],,,,5h[8:1],,4h[8:1],,3h[4:1],,
{8}2,2,1,1,{16}7/8,,7,8,6,1,5,2,
{8}4b<7[8:1],4,3,2,1-5[8:1],1,8,7v4[8:1],
{8},3v8[8:1]/7,,3/6v1[8:1]*p1[8:1],,,,3>8[8:1],
{32},,,,7,6,5,4h[32:5],,,,,,,,,{8},8/7,6/5,3h[4:1]/4,
{16},,7,6,5,,1,2,7,6,2,3,6,5,1,2,
{8}3b/7b-4[8:1],,8,1,2>5[8:1],1,8,8b>3[8:1]*<5[8:1],
{8},8b-4[8:1],,8b,,,{16}4,5,4,5,
{8}3h[8:3],2,1,8h[8:3],,7,6,5h[4:3],
{16},,1,2,3,,1,8,7,,1,2,3,4,5,6,
{8}7-4[8:1]/8-5[8:1],8/7,,,2-5[8:1]/1-4[8:1],1/2,,,
{8}6h[8:1]/3-1[8:1],,6h[8:1],,5h[8:1]/4-2[8:1],,5h[8:1],,
{8}1<6[8:1],6>3[8:1],,,7>2[8:1],2>5[8:1],,,
{8}8<5[8:1],1,2,3,4>1[8:1],5,6b,,
{8}2<7[8:1],7<4[8:1],,,8>3[8:1],3<6[8:1],,,
{8}2<7[8:1],3,4,5,6>3[8:1],7,8b,,
{8}7h[8:1]/2q5[4:1],,8,8,,7,7,,
{8}6p4[4:1]/2h[8:1],,1,1,,2,2,,
{8}3/4,3/4,2/5,2/5,1/6,1/6,8/7,8/7,
{16}6,1,6,1,7,2,7,2,8,3,8,3,{32}8b,7,6,5,4,3,2,1,
{4}8-4[4:2],,,,
{32}2/6,,,,8b,7,6h[16:3],,,,,,2b,3,4h[16:3],,,,,,7b,6,5,,1b,2,3,,,,,,
{8}8h[4:4],1,,1,,1,,1,
{8}3h[4:4],4,,4,,4,,4,
{8}6h[4:4],5,,5,,5,,5,
{8}2h[4:4],1,,1,,1,,1,
{4}7b-2[4:2],3,3,3,
{4}1b-5[4:2]/2,2,2,2,
{8}6,6,3,3,7-4[8:1],7,2-5[8:1],2,
{8}8-4[8:1],8,1-5[8:1],1,2-6[8:1],2,3,3,
{8}4-8[8:1],7,6,5,5-1[8:1]/2,3,4,3>8[8:1],
{8},6>3[8:1],,1<6[8:1],,,,8h[4:1]/7,
{16},,6,5,4h[8:1],,3h[4:1],,,,2h[8:1],,1h[8:1],,8h[4:1],,
{16},,1,2,3,,7,6,5,,1,2,7,6,2,3,
{8}4b/8b-4[8:1],3,2,1,7/8,7-5[8:1]/8-4[8:1],,7b-3[8:1]/8b-2[8:1],
{8},7b/8bw4[8:1],,8b,,,{16}8,1,8,1,
{8}7h[4:1],8,1,2h[4:1],,3,4,5h[4:3],
{16},,1,8,7,,1,2,3,,1,8,7,6,5,4,
{8}3/7-3[8:1],1/5,,,4-8[8:1]/8,2/6,,,
{4}7h[8:1]/1-3[8:1],7h[8:1],6h[8:1]/4-2[8:1],6h[8:1],
{8}1-5[8:1]/8-4[8:1],,,,,2,1-5[8:1],8,
{8}7pp4[4:1],,3h[8:1],,,2,1-5[8:1],8,
{8}7,7,6,5<8[8:1],,4,3,2,
{8}1-5[8:1],7-3[8:1],1,7,,4,2,8,
{8}5/6,5/6,7/8,7/8,1/2,1/2,{16}3,4,3,4,
{16}2b,,1/5,,1,2,3,4,5b/1,,5/1,,1,8,7,6,
{16}1b/5,,1/5,,1,2,3,4,5b/1,,5/1,,1,8,7,6,
{8}5/4b,2,5/6,8,3/4,2/4,5/6,5/7,
{16}1,2,3,4,5,6,7,8,{32}1b,2,3,4,5,6,7,8,1,2,3,4,5,6,7,8,
{4}1bq7[4:7]/5bq3[4:7],
E
