&title=It's me
&artist=TryHard Ninja
&first=0.214
&des=111
&des_5=111
&lv_5=14
&inote_5=(130){4},{1},{16},,,{32}6,
7,{2}8h[4:3],
{4},2<5[4:7],{2}2/3h[4:5],
{4},,,,,,1<4[1:1],
1/2h[2:1],
{8},,,,C,Ch[4:5],{16},,E8,B8,
B1,E2,B2,B3,E4,B4,{32},B5,,,E6,,,B6,,,{16}B7,{32},E8,,,{16}E1,E2,
E3,E4,E5,E6,E7,A7,A8,A1,A2,A3,A4,A5,A6,{32}A7,8,1,2,3,5,
6,7,8,2,3,4,{16}5,{32}8,7,6,5,3,2,1,8,6,5,4,3,6,7,{48}8x,1x,2x,3x,4x,5x,6x,7x,8x,1bx,2bx,3bx,4bx,5bx,6bx,
7bx,8bx,1bx,2bx,3bx,4bx,5bx,6bx,7bx,8bx,,,{16}1b,2b,{32}3b,E1,,E8/B8/B1/E2,,B7/B2,,E7/C/E3,,B6/B3,,E6/B5/B4/E4,{16}3/E5,,,3,
,,{8}3>8[8:1],{16},3,3,4,,,,2,,,{8}2,
{16},2<7[8:1],,,2,2,{8}5,{16},,,1,,,{8}1,
{16},1<6[8:1],,,1,1,{8}2,{16},,,,8,,,8,
,,{8}8V64[8:1],{16},8,8,2,,2-4v5-7[16:3],,2,,4/2,1,1,
,8,,8,,8,{8}8<4[8:1]*>4[8:1],5/3,8,{16},E5/E4,,5,
,5/6,{8}7h[8:1]/5>8[4:1],E7,{16}B6,B5,{4}B4,{8}7-2[16:1],{16}3-6[16:1],8/4,
{8}7,3,4/5,3,{16}6/B5,B4,5/B3,5,{8}7h[16:1],8h[16:1],
1h[16:1],2qq5[4:1]*pp6[4:1],,2,,,7>2-7[4:5],B6,
E3,{16}E5,E5,,E7,,E4,,E6,,B2,,C,,B6,
,E7,,B4,6xz2[8:1],6xh[16:3],,,,,,,1,1h[2:1],,8,
,7,,6,,5,,2/E7,{32},3/B6,,,{8}4/B5,{16},2-7-3[16:9],,E7,
,B6,,B5,,5x,{8}5xh[8:1],{24},,,,,B5,B6,B7,B8,B1,B2,B3,
{16}B4/5>1[2:1],,,5,,,{8}5,{16},6,,6,,6,4,4<8[2:1],
,,{8}4,{16},4,,,{8}3,3,{16}3,4,{8}4V28[2:1],
{16},4,,,4,,,7,,6,,5,4,5,{8}5V71[2:1],
{16},5,,,5,,,2,2,3,,4,{8}5,5/1-5[2:1],
{16},1,,,2,,,3,,,{8}6,7,8,
{16}7/3-7[2:1],,,6,,,{8}5,{16},4,,,{8}3,2,
1<6[8:1],4,3,2<7[8:1],5,4,3>8[8:1],6,
5,4>1[8:1],7,6,{2}5s1s5[8:1],
{8}3/B2,4,{4}B3/4<6[8:1],{8}4/B4,7,{4}8/B5,
{16}1/B6,,,2,{8}B7/2>4[8:1],1,2/B8,5,{4}B1/5-3[16:1],
{8}5/B3,{16}2,5,{4}B2/5>3[8:1],{8}5/B1,2,{4}1/B8,
{16}8/B7,,,7,{8}B6/7<5[8:1],8,7/B5,4,{4}B4/4-7[16:1],
{8}4/B3/B2,{16}8,1,{4}B2/B1/1<7[8:1],{8}1/B1/B8,6,5/B8/B7,2,
{16}4/B7/B6,,,3,{8}B6/B5/3>1[8:1],4,3/B5/B4,8,{16}B4/B3/8-5[16:1],3,{8}6,
{16}8/B6/B7,,,8,{8}B7/B8/8>2[8:1],6,8/B8/B1,3,4/B1/B2,7,
5/B2/B3,{16}4,6,{8}B3/B4/6<8[8:1],5,6/B4/B5,1,B5/B6/1s5[16:1],3/7,
{4}1/6-3[16:1],6/4-1[16:1],4/2-7[16:1],2/8-5[16:1],
{6}8/4-2[16:1],{12}4,4/1-7[16:1],,1,{6}1/6-4[16:1],{12}6,6/8-2[16:1],,8,
{16}8/4-7[16:1],,,4,4/6-1[16:1],,,6,6/3-6[16:1],,,3,3/5-2[16:1],,,5,
5/8v6[16:1],{32},,,,8,8,{16}8/3v2[16:1],{32},,,,3,3,{16}3/5v8[16:1],{32},,,,5,5,{16}5/7-3-6[16:1],{32},,,,7,7,
{4}7/1,{8}2/5,2/5,{16}4,4,{8}3,3/6,{16}6/3,{32}E6,B5,
4/B4,E4,{16}E3,6,6,{8}5,4/7,{16}4/7,{32}B2,B1,1/B8,B7,2/B6,B5,3/B4,B3,{16}B2,{8}8,
{16}5,5,4,4,{32}6,5,{16}6,{32}3,4,{16}3,{32}7,1,{16}7,{32}2,8,{16}2,{32}6,1,{16}6,{32}3,8,{16}3,
{48}2,1,8,7,6,5,4,3,2,1,8,7,{8}2b/6b-2[8:5],B4,E8,E3,{16}E6,E6,,E4,
,E7,{8}C,{32}1b/7h[8:1],2,3,4,,,,,1b/2h[8:1],8,7,6,,,,,{8}5/3,{16}4,6,
7/5,8h[8:1],,3,,2/1,,7,,6/5,{8}4,{32}7V58[32:3]/3V14[32:3],,,3/7,,,{16}3/7,
{4}3/7,{32}7b/2h[8:1],6,5,4,,,,,1b/8h[8:1],2,3,4,,,,,{8}7/5,{16}2,8,
7/1,3h[8:1],,4,,6/1,,5,,8/3,{8}2,{32}1/5,,,1/5,,,{16}1/5,
1/5,6/2,{32},6/2,,,6/2,,,8b/2h[8:1],7,6,{16}5,{32},,,8b/7h[8:1],1,2,{16}3,{32},,,4/6,,,,5,
,3,,2/4,,1h[8:1],,,,6,,,,7/8,,,,2,,,,3/4,,5,,,,2V41[32:3]/6V85[32:3],,,{16}6/2,
{32},6/2,,6/2,,,,,,,,2b/7h[8:1],3,4,{16}5,{32},,,8b/1h[8:1],7,6,{16}5,{32},,,2/4,,,,7,
,1,,2/8,,6h[8:1],,,,5,,,,3/8,,,,4,,,,1/6,,7,,,,8/4,,,{16}8/4,
{32},8/4,,8/4,,3/7,,,3/7,,,3/7,,,{16}C,5,7,5,7,5,4,5,4,
5,4,5,3,5,2,{24}5,1,5,8,5,7,5,6,5,4,3,4,5,4,6,
4,7,4,8,4,1,{16}4,2,4,3,4,5,4,5,4,6,4,6,
4,3,5,3,5,4,2,4,{8}2h[16:5],1,{16}8,8,{32}4/6,,,6z2[32:3]/4s8[32:3],
,,{16}5/3,{32}5/3,,,6/4,,,{16}A8/A2,{32},C,,,{16}4,2,4,2,4,5,4,5,
4,5,4,6,4,7,{24}4,8,4,1,4,2,4,3,4,5,6,5,4,5,3,
5,2,5,1,5,8,{16}5,7,5,6,5,4,5,4,5,3,5,3,
5,6,4,6,4,5,7,5,{8}7h[16:5],8,{16}1,1,{32}5/3,,,3s7[32:3]/5z1[32:3],
,,{16}4/6,{32}4/6,,,3/5,,,{16}A7f/A1f,,,{8}6h[4:1],5,4,2h[4:1],
3,5,7h[4:1],1,4,{16}B7,B2,{4}8z4[8:1]/1s5[8:1],
{16}8/1,,,E7,B6,B5,,,8-5[16:1],4-1[16:1],,6/2,8,4,{8}6,
7/3,8,4,3,2,1/6-8v1-3[16:3],{16}5/4,6,6,2h[16:3],
,,B3,B4,{8}B5,{16}3-6>3[4:3],B8,,B2,,B7,,B3,,B6,
,B6,{32},C,,,{4}E3,{16}1,1<8-5>4s8[4:1],,7,,6,,3h[4:1],
,,,1b,,,{8}6-2[8:1],,6/3,4h[4:1],5,
6,{32}7/E7,,,8/C,,,{16}1/E3,,5-1[16:7],,,{8}B8,{32},E7,,,,,{16}B3/E4,
{32},2h[32:7],,,,,,,{16}E8,B7,B6,E6,{32},E6,,,{8}8,{16}8>4[2:1],,,8,
,,{8}8,{16},7,,5,,6,1,1<5[2:1],,,{8}1,
{16},1,,,{8}3,4,{16}1,2,{8}1V35[2:1],{16},1,,,1,
,,6,,7,,8,1,8,{8}8V64[2:1],{16},8,,,8,
,,3,3,2,,1,{8}8,8/4-8[2:1],{16},4,,,3,
,,2,,,{8}7,6,5,{16}6/2-6[2:1],,,7,
,,{8}8,{16},1,,,{8}2,3,4<7[8:1],1,
2,3<6[8:1],8,1,2>5[8:1],7,8,1>4[8:1],
6,7,{4}8z4z8[8:1],{8},,2/B3,1,
{4}B2/1-7[8:1],{8}1/B1,6,5/B8,C,{16}4/B7,,,3,
{8}B6/3v1[8:1],4,3/B5,8,B4/8-4[16:1],B6,8/B2,{16}3,8,
{8}B3/8v7[8:1],B5,8/B4,3,4/B5,E3,{16}5/B6,,,6,
{8}B7/6-3[8:1],5,6/B8,1,{4}B1/1-6[16:1],{8}1/B2/B3,{16}5,4,
{4}B3/B4/4v1[8:1],{8}4/B4/B5,7,8/B5/B6,3,{16}1/B6/B7,,,2,
{8}B7/B8/2>4[8:1],1,2/B8/B1,5,{16}B1/B2/5-8[16:1],2,{8}7,{16}5/B7/B6,,,5,
{8}B6/B5/5v7[8:1],7,5/B5/B4,2,1/B4/B3,6,{16}8/B3/B2,,,7,
{8}B2/B1/7-3[8:1],8,7/B1/B8,4,2/1,8/7-2[16:1],,7/4-1[16:1],
,4/3-6[16:1],,3/8-5[16:1],,8/2v3[16:1],{24},2,,{8}2/6v1[16:1],
{24},6,,{8}6/4-2[16:1],{24},4,,{8}4/8-5[16:1],{24},8,,{8}8/3p7[16:1],{16},3,{8}3/6-1[16:1],
{16},6,{8}6/2-5[16:1],{16},2,{8}2/8v1[16:1],{16},8,{8}8/3<6b[16:1],{32},,3,3,{8}3/7v2b[16:1],
{32},,7,7,{8}7/1-5b[16:1],{32},,1,1,{8}1/7-3b[16:1],{32},,7,7,{8}7/2,{16},C,,7/4,
,7/4,,5,5,6,,6/3,,3/6,{32}E4,B4,5/B5,E6,{16}E7,3,3,4,
,5/2,,5/2,{32}E8,E1,8/E2,E3,7/E4,E5,6/E6,E7,{16}E8,1,,4,4,5,5,{32}3,4,
{16}3,{32}6,5,{16}6,{32}2,8,{16}2,{32}7,1,{16}7,{32}3,8,{16}3,{32}6,1,{16}6,{48}7,8,1,2,3,4,5,6,7,8,1,2,7b/3b-7[8:5],,,,,,{16}B6,
,E1,,B2,,B4,{8}E6,C,{16}B1,B2,{32},,,,2b/8h[8:1],
3,4,5,{8}6,{32}1b/2h[8:1],8,7,6,{8}5,{16}3/4,2,,5/6,{8}7,5h[8:1]/1h[16:1],
,2/4,7,{16}6/4,2,,3V57[32:3]/7V13[32:3],{32},7/3,,,{16}7/3,7/3,{32},,,,,8b/1h[8:1],
7,6,5,4,,,,8b/7h[8:1],1,2,3,4,,,,6/4,,2,,,,1/3,,6,,,,8h[16:1]/4h[8:1],,,,,,,,7,
,,,1/2,,,,2,,8/7,,,{16}8/4,{32},4/8,,,{16}4/8,2/6,{32},2/6,,,6/2,
,,8b/6bh[8:1],1,2,3,4,,,,5b/2bh[8:1],6,7,8,1,,,,4/7,,B6,,,,2/5,,C,,,,6h[16:1],
,1h[16:1],,,,8,,B2,,,,8/7,,3,,E5,,2/1,,,2s6[32:3]/6s2[32:3],,,2/6,,,{16}6/2,{8}2/6,
{32},,,7b/5bh[8:1],8,1,2,3,,,,1b/3bh[8:1],8,7,6,5,,,,8/1,,B6f,,,,5/4,,B5,B4,,,2/B3f,
,8,,6h[16:1],,4,,,2/5,,,8/3,,2,,B7,,,,1/6,,B3,,,1/5,,,5/1,,,{16}3q3[32:3]/7q7[32:3],
{32}3/7,,,3/7,,,{16}3/7,{32},A7/A3,,,{16}5/4,5,3,5,3,6,4,6,4,7,
5,7,5,6,5,{48}1,,6,,1,,7,,2,,7,,2,,4,,1,,8,,4,,8,,5,,3,,6,,4,,7,
,5,,1,,8,,2,,{16}7,3,7,3,5,1,5,1,4,8,4,8,3,
6,3,{8}6h[4:1],{16}8,2,{8}2,3/5,{32}8/2,,,2z6[32:3]/8s4[32:3],,,{16}1/7,{32}1/7,,,2/8,
,,{16}A6/A4,,3/7,1,7,1,7,2,8,2,8,3,1,3,1,
2,5,{24}5,2,5,3,6,3,6,4,8,4,8,4,1,7,2,8,3,1,5,4,6,
{16}3,7,3,7,1,5,1,5,8,4,8,4,7,2,7,3,
5,3,C,2h[32:7],,6,{32},5,,,{16}4,4,,5/3,,1/7,{32},7s3[32:3]/1z5[32:3],,,{16}8/2,
8/2,{32},7/1,,,{16}A5f/A3f,6,,,6,,,6<1[8:1],,,6,6,
5,,,,,7,,,7,,,7>2[8:1],,,7,7,
6,6,,,,8,,,8,,,8>3[8:1],,,8,8,
7,,,,,1,,,1,,,1>4[8:1],,,1,1,
{8}8,{32}7,,,6,,,{16}5/4,,,5/4,,,5/4<7[8:1],,,4,4,
{8}E6,,,6/5,{16},6/5,,,6/5<8[8:1],,,5,
5,E7,,,,,{8}4/6,{16},4/6,,,4/6<1[8:1],,,6,
6,E8,,,,,{8}1/8,{16},1/8,,,1/8>3[8:1],,,8,
8,E2,{8}5<3[4:5],5,4h[4:5],
E
