&title=Xibercannon
&artist=Aoi/庭师
&first=0.235
&des=7ffon
&lv_5=14.6
&des_5=7ffon
&inote_5=
(190){4},4h[4:7]/6>4q7>1[2:5],,,,,,,,B4,
{16},,E4,A3,{4}D3,
,2V83[2:1],{16},,5,5,,,,,,,{8}5,
{4}4h[4:1],7b,{8}3,3,
7,7,{4}4/6qq1[2:1],6,2,
,3v8[2:1],{16},,,,,,,,,,,6,
{4}5>4>3>2<1<8<7[2:3]*>4>3>2<1<8<7b[2:3],,,,,,,,,,6b>4b[8:1],
6b,{8}2,{16}3,4,{4}3h[8:1],{16}3,5,{8}4h[8:1],
{16},,5,3,{4}5h[8:1],{16}4,6,{8}4h[8:1],,5,
{4}4>2b[8:1],{8}4b/6,{16}B5,B4,{8}B3,{16}B2,B1,B8,B7,{8}B6,
{16}4b,3,2,1,8/5,4,3,2,1,8,7,6,{4}5<8b[8:1],
4>1b[8:1],{8}4/7,7,6,6,5,5,
{16}3,4,3,4,{8}2h[8:1],{16}4,3,{8}4,5/2,1,4/7,
6/3,2/5,{16}3,4,{8}2,2,{16}5,4,{8}7h[8:1],{16}4b,5,
6,7,8,1,2b/4b,,,5b/1b,,,{8}6b/2b,{16}4b/3b,,,2b/8b,
,,{8}7b/3b,{4}6h[8:1]/2>4[8:1],2/6h[8:1],6h[8:1]/5>3[8:1],
{8}5/6h[8:1],,,2/7bh[8:1],{16},,6,5,{8}4,2/7,
{16}3,4,{8}5,{16}6h[16:3],,,5h[16:3],,,{8}6h[8:1],5,4,
3/7,8,2/1h[4:1],E3,B3,B4,A4/E5,7,
7,6,{16}5h[16:1]/3h[16:1],,,4h[16:1]/2h[16:1],,,{8}3h[8:1]/1h[8:1],,4/2,
{16}4/2,,,5h[16:1]/3h[16:1],,,{8}6/4>1[8:1],5,4,{4}5<7[8:1],
{8}5/8,1,2,3,8/4,5>3[8:1],,5/6,
6,6,{16}5b,4,3,2,1,8,7,6,{4}5/3h[8:1],
{16}4/3h[8:1]
||这是一个标记~
,5,6,7,{4}8-4[8:1],{8}8/3,2,1-5[8:1],1,
6-8[8:1],6,{16}4,3,{8}2,2h[2:1],E1,B7,B5,
,4h[8:3],{4}3,{8}2h[4:1],3,{4}4h[4:1],
{8}3>1[8:1],4,{4}3,{16}5,2,{8}5,{16}4,2,{8}4,
{16}2,5,1,6,{4}8-4[8:1],8/7-3[8:1],7/6-2[8:1],
6/5,{8}4h[4:1],{16}1,8,7,6,{8}5,4h[4:1],B5,
B6,B7,{16}8,4,8,4,8,3,8,3b,2,1,8,7,
6,5,4,3,{4}2s6[4:3],2b,4b,
6bp4<8[4:5],Cf,{16},,,,,,,,,,,,,,,,,,A5,
A6,{8}A7,A4,
A3,A2,{4}1q2>5[1:1],{8},,,7,
,7-4-8-5-1[8:9],,,,,,,,,{4}3h[4:1],
,2-4-8-4[1:1],
{8},,,,7,7<4[8:3],,,,,3,
2,1>4[8:1],5,6/1,7,
8s4[4:1],8bh[8:3],{16},,,,,,7,6,{8}5,{16}3,2,
{4}1-5[8:1],8h[8:1]/1>3[8:1],8h[8:1]/1-6[8:1],8h[8:1]/1-4[8:1],
8<6[8:1]/1-5[8:1],8/1,,,8-4[8:1],
2h[8:1]/8<6[8:1],2h[8:1]/8-3[8:1],2h[8:1]/8-5[8:1],
8/2h[8:1],{16}3b,4,5,6,7,8,1,2,{4}3/4h[8:1],
5/3h[8:1],{16}4,5,6,7,3,2,1,8,4b,5,6,7,
8/4,3,2,1,8,7,6,5,4/7,8,1,2,3,4,5,6,
7/3,2,1,8,7,6,5,4,3,7,4,8,5,1,2,6,
2,6,2,6,5/1,4/8,3/7,6/2,5/1,4/8,3,2,1,8,7,6,
5,4,{8}3b/1bp3<8p2[8:13],{1},,,{4}7-4[8:1],
7/1h[4:1],{16}3,2,1,8,
{4}3/7,{8}6/5,4/7,{16}5,6,,4,{8}7<5[8:1],3,
{4}7/2,{8}4/3,5/2,{16}3,4,,2,1,3,8,4,
7,5,7,5,7b,8,1,2,3,4,5,6,{8}7/3,{16}4,6,
{8}4,{16}7,5,7,5,6,4,6,4,5,3,5,4,3,2,
1,8,7,6,{8}5/2,4/3,{16}2,5,,3,{4}4<6[8:1],
4b/3,{8}7/2,1/8,{16}2,7,2,7,{32}2b,3,4,5,,,,,7b,
6,5,4,,,,,{8}3/2,4/1,{16}8,5,8,5,1,6,1,6,
2,7,2,7,{4}3bh[8:1]/8h[8:1],4bh[8:1]/7h[8:1],{8}6/5,5/4b,
{16}3/4,5,6,7,{4}8v5[8:1],8/2,4/3>1[8:1],
{16}4/3,5,6,7,{8}8,4,{16}8,3,,3h[16:1],7,6,5,4,
2,4,2,4,{4}2-6[8:1],2/8b,7-5[8:1],
{8}7/1b,2,{4}3-5[8:1],3/8<6[8:1],8/4,
7/1,{8}2/6,5/3,{16}4,2,,3/4bh,,,{8}2/6h[8:1],
{4}2,{8}7/3,6/4,{16}5,7,,6/5bh[8:1],,,7,4,
8,3,1,2,{8}1-5[8:1],2-4[8:1],1,2,{16}A6,A7,A8,A1,
A2,A3,D4,A4,D5,,,5x/2b,,5x/2,,,{8}6/8b,{16}5/1,6/2,
{4}7-4[8:1]/3-8[8:1],7b/3b,{8},,,,,,,,,,,,,1,
{4}1h[4:1],{12},,,2,3,4,
7,6,5,4<7[4:1],{4},,,{16},,{24},{8}8,
1,2,3/8,1,2,
3,4,2/5,4,3,5/2<5[8:3],,A2,
D1,D7,{4}A5/C,,7b/3b,
,4b-1[8:1],5b-8[8:1],2>4[8:1],
2/7,{8}6/5,6/5,{16}4,7,,4,{8}7>1[8:1],6/5,
{4}7/4,{8}3/4,4/3,{16}2,5,,2,4,3,4,3,
{8}5,6/2,7/1,8/2,{16}3b,4,5,6,7,8,1,2,
3/5,6,7,8,1,2,3,4,5/2,3,4,5,6,7,8,1,
{4}2/5,{16}3,4,3,4,2,5,4,5,4,6,3,5,
3,5,4,6,5,6,4,5,4,6,5,7,5,7,4,8,
4b,3,2,1,8,7,6,5,4,3,2,1,5,4,3,2,
1,8,7,6,5,4,3,1,3,1,3,1,{32}2x/4x,3x/5x,4x/6x,5x/7x,6x/8x,1,2,3,
4,5,6,7,8,1/5,2/6,3/7,{4}4qq1[4:7]/8qq5b[4:7],{1},,{8},{16}A7,
A6,{8}A5,A2,
A3,A4,{4}A5/A6,{16},,B6,B5,,,,,,,{8}3,
{4}2h[4:1],5b,{8}1,1,
5,5,{4}2/4qq7[2:1],4,1,
,2>3-7<6-2[4:7],
E
