&title=SUPER CHOCOLATE
&artist=生天目仁美&阿澄佳奈
&first=0.42
&des=Hanario
&lv_5=12+
&inote_5=(205)
{8}4qq4[4:1]*pp4[4:1],,,,,1,8,,
{8}2-5[8:1],,6-1[8:1],,4,3,2,1,
{8},57,,45,,24,,,
{8}7-4[8:1],,3-8[8:1],,5,6,7,8,
{8},42,,54,,75,,,
{8}3v8[8:1],,7v4[8:1],,1,2,3,4,
{8},86,,18,,31,,,
{8}34,4/2,,56,5/7,,18,27,
{8},45,3/6,,2-5[8:1]/7-4[8:1],,27,,
{8}3h[4:3]/6h[4:3],,,,,,,,
{8}3h[4:1],,5,4h[4:1],,6,5,,
{8}4h[4:3]/7h[4:3],,,,,,,,
{8}6h[4:1],,4,5h[4:1],,3,4,,
{8}2h[4:3]/5h[4:3],,,,,,,,
{8}3h[4:1],,4,2h[4:1],,3,1h[4:1],,
{8}8,,3,4,,4,2,,
{8}1,,6,5,,5,7,,
{8}3,,3,,3,,3,,
{8}3/5,,37,,43,,38,,
{8}6,,6,,6,,6,,
{8}64,,62,,56,,61,,
{8}6/5>1[6:1],,8,,4<8[6:1],,1,,
{8}5-1[6:1],,8,,4-8[6:1],,1,,
{8}3,,3,4,,4,5,,
{8}6^4[8:1]/5^7[8:1],,,,1^3[8:1]/2^8[8:1],,,,
{8}47,,2,4,3,5,4h[1:1],,
{8}5,,5,,,3,3,,
{8}27,,7,5,6,4,5h[1:1],,
{8}4,,4,,,6,6,,
{8}4h[4:1],,5,4/6h[4:1],,8,1/7,,
{8}2h[4:1]/8,,4,3/5h[4:1],,3,2/4,,
{8}57,,24,,45,36,27,18,
{8},,,,1>8[8:7],,,,
{8}5>1[2:1]*<8[8:3],,,,,,,,
{8}2b/7b,2b/7b,2b/7b,2b/7b,,18,27,,
{8}4p7[6:1],,5q2[6:1],,4p7[6:1],,6,6,
{8},1,28,,5-2[8:1]*-8[8:1],,5b,,
{8}8^5[6:1]/1,,1^4[6:1]/8,,18,,7,7-4[8:1],
{8},5-2[8:1],5,,8,,3-8[8:1]/7,,
{8}5,,6-1[8:1]/2,,4,,3,24,
{8},8V24[8:2]*V64[8:2],8,,,,1b/6b,,
{8}8,,2-5[8:1]/6,,8,,6,57,
{8},4qq4[8:2]*pp4[8:2],4,,,,8/3^8[4:1],,
{8}3/8<4[8:3]*>4[8:3],,,,,,,6-1[8:1],
{8},2,3-8[8:1],,7,,1/6<5[12:7],,
{8}6/1<5[12:4],,,,,,,7-4[8:1],
{8},3,2-5[8:1],,6,,7,,
{8}8-5[8:1]/5-3[8:1],,,,5^8[8:1]/1^4[8:1],,,,
{8}5-2[8:1]/8-5[8:1],,,,2-6[8:1]/4<8[8:1],,,,
{8}1w5[8:1],,1,,47,36,25,1s5[8:3]/4<8[8:3],
{8},,,,,,,,
{8}2-5[8:1],,6-1[8:1],,4,3,2,1,
{8},57,,45,,24,,,
{8}7-4[8:1],,3-8[8:1],,5,6,7,8,
{8},42,,54,,75,,,
{8}3v8[8:1],,7v4[8:1],,1,2,3,4,
{8},86,,18,,31,,,
{8}3,4/2,,6,5/7,,18,27,
{8},45,3/6,,2-5[8:1]/7-4[8:1],,27,,
{8}34,5/2,,56,4/7,,18,2b/7b,
