&title=パノプティコン
&artist=r-906
&first=-2.539998
&lv_5=14
&des_5=styx
&inote_5=
(125){16},(117.4),(109.8),(102.2),(94.6),(87),,,,,,,,,,,3>4[0.6897##1.8966]*-7[0.6897##0.6897],
,,,,,,,,,,,,,,,1-4-6-1[8:5],
,,,,,,1>1[16:3],,,,,,,,,5,
6,4,3,6,7,,3,2,1,2,1,,4,5,3,
5/4,6,4,3,6,7,,5,,,{8}5/2h[8:3],{48},,,,,,,,,,,,,5,
6,7>2[16:3],{4},{16},,{24},{16}4,5,4,{32}2,1,2,1,{16}2,7,7/1,
,6/2,{32},,5>2[16:1],3,5,3,{16}5h[32:5],,,6,5,6,{32}8,1,8,1,{16}8,2,2/6,
,4/8<4[8:1]*>4[8:1],,Cf,,,,,8,1,8,{32}5,6,5,6,{16}5,5,5/3,
,6/2,{32},,5<8[16:1],7,5,7,{16}5h[32:5],,,4,6,3,{32}7,8,7,8,{16}7,3,6/3,
,1/7,{8}5,{32}1,2,3,4,5,6,7,8,{2}1bs5[8:1],
4-1-3[8:1]*-7-5[8:1],2-8[8:1]/1-5[8:1],
7-5v4-2[8:1],7-4[8:1]*-1[8:1],
2p5[8:1]*p3[8:1],{8}5/1s5[8:1],1/5s1[8:1],{32},,,,,,,,5,
6,7,8,1,2,3,4,{24}1b/5h[8:1],{48},,,,,,,,1,2,{2}3h[2:1],
{16}2h[2:1],,,,,,,4,3h[4:3],4,{8}4,{16}4,4,,4,
{24}4h[4:1],{4},{16},,{24},{48}6,7,{2}8h[2:1],
{16}7h[16:9],,,,,,,,,6,{8}4h[8:1],{16}6,4h[8:1],,2,
{4}2qq7[4:1],{16}6,5,4,3,{2}2h[2:1],
3h[2:1],{16}4h[16:7],5,{8}5,{16}5,5,,5<4[16:5],
{24}5h[4:1],{4},{16},,{24},{48}7,6,{2}5h[2:1],
{16}2,1,,5,6,4,7,2,{8}1>1[2:1],C,{4}5>1[4:1],
{8},,,5,5-1[32:3],6/4,5/1-5[32:3],2/8,
1/5-1[32:3],6/4,5/1,8/2,{16}2,1,3,4,1,8,4,5,
8>2[8:1],7,2<7[8:1],6h[16:3],,,,,{8}5V31[8:1],{16}3/7,3/7,{8}5V71[8:1],6,
5p1[0.6897##0.3448],2,{16}5<5[0.6897##1.7241],,{8}7,{2}5b/Cf,
{16},,,,,3,{8}8,2/1-5[16:1],7/8-4[16:1],1/2>5[32:1],8/7<4[32:1],
2/1-5[32:1],7/8-4[32:1],1/2,8/7,{16}7,8,6,5,8,1,5,4,
1,2,4-1[16:1],3h[16:3],,,{8}4b,7/8,{16}1-6[16:1],8,{8}2,2/1,
5,{16}8-3[0.6897##0.1724],1,7/4<4[0.6897##2.4138],,{8}7/8,{2}4/Ch[8:7],
{16},,,,,,,,6b/3b,6,6,{32}6,5,{16}6,6,6,6,
6,6,6,6,{32}6,5,{16}6,6,{32}6,5,{16}4,4,4,{32}4,5,{16}4,4,4,4,
4,4,4,4,{32}4,5,{16}4,4,{32}4,5,{16}6,6,3,3,7,7,2,2,
8,1,7,2,6,3,5,4,{32}6,2,8,4,7,3,5,1,6,2,8,4,7,1,8,1,
{64}8,7,6,5,4,3,2,1,8,7,6,5,4,3,2,1,8,7,6,5,4,3,2,1,8,7,6,5,4,3,2,1,{2}8h[8:11]/4h[8:11],
{1},{32}8w4[32:3],
1,7,2,6,3,5,4,{4}8b`E1f,{8}1bs5[8:1],{16}8/7,2/1,{4}2/1,
{32}4-1-3[8:1]*-7[32:3],3/5,2/6,1/7-5[32:1],,,,,,,,,,,,,{8}2-8[8:1]/1-5[8:1],{16}2/1,2/1,{32},,,,,,,,7-5[16:1]/2-4[16:1],
6/3,{16}4/5v4[16:1],,,,,,,{8}7-4[8:1]*-1[8:1],{16}6,8,{4}7,
{16}5q2[16:1],2p3[16:1],,,,,,,5/1s5[8:1],7/3,{8}1/5s1[8:1],{32},,,,,,,,5,
6,7,8,1,2,3,4,{64}5q7[2:3]/1q3[2:3],8,7,6,5,4,3,2,1,8,7,6,5,4,3,2,{2}1/5/Cf,
{1},{4},{16}6b/5b,
7b/4b,,,4,7,4,7,3,8,3,8,
2,1,2,1,{32}2,1,2,1,2,1,2,1,2,1,2,1,{64}2b,3,4,5,{32}7,8,7,8,7,8,{64}7b,6,5,4,{32}1,8,
{64}1b,2,3,4,5,6,7,8,1,2,3,4,5,6,7,8,1,2,3,4,5,6,7,8,{8}1/Cf,3/4-8[16:1],5/6-2[16:1],4/3>8[32:1],6/5<8[32:1],
4/3-7[32:1],6/5-1[32:1],4/3,5/6,{16}6,5,7,8,5,4,8,1,
4,3,1w5[16:1],2h[16:3],,,{8}1b,7,{16}1-5[16:1],7,{8}8,1/3,
2,{16}8-4[16:1],2,{8}1p8[2:1]/5p4[2:1],8/3,{2}C,
{32},,,,,,,,,,7,2,{8}7,1/8-5[16:1],2/7-2[16:1],8b/6-3[16:1],7b/5-8[16:1],
6b/4-1[16:1],5b/3-6[16:1],4b/2,3b/1,{16}8<5[16:1],1/8,,1,{8}1/8>3[16:1],{16}8,7/8,
,8,8,8,7qq6<7[2:1]/2pp3>2[2:1],E6/E4,{8}E4/E6,{2}7/2,
{32},,,,,,,,5,4,5,4,5,4,5,4,{8}7b-5[16:1],7/8b-4[16:1],7b/1-3[16:1],8b/6-8[16:1],
1b/5-1[16:1],6b/4-2[16:1],5b,4b,{16}2/7b-4[16:1],8,8,8,7b/2-5[16:1],1-7[16:1],1-4[16:1],1-6[16:1],
1-3[16:1],,,,,,,5,{8}5<8[16:1],4>1[16:1],,,7<5[0.6897##0.3448]/3<5[0.6897##0.3448],
{16}5>1[0.6897##1.7241]*<1[0.6897##1.7241],C,,,,,,,,,,,,,,,,,,6/4,
{8}5/3,4/2b-6[16:1],3/1b-5[16:1],{16}2b/8-4[16:1],1,{8}1b/7-3[16:1],
8b/6-2[16:1],{16}7b/5-1[16:1],6,{8}4/6b,5b/3,{16}4/2,3,4,3,5/7,6,5,6,
5-1b[16:1],6/4,7/3,8/2,5b,,,4,{2}4qq4[8:1]*pp4[8:1],
{8}2-6[0.6897##0.3448]/8-4[0.6897##0.3448],,,,{2}E1fh[4:3]/Cfh[4:3]/B8fh[4:3]/B1fh[4:3],
E
