&title=歌え踊れや桃源郷!
&artist=karato feat. yuno
&first=0.275
&des=Zr
&wholebpm=178.000
&lv_5=13+
&des_5=Zr
&inote_5=(178)
{16}1xh[4:1],,,,
,,,,
1x-5b[8:1],,,,
,,,,
{16}4b/6-8[8:1],,,5,
6,,4,,
3-1[8:1],,,4,
3,,5,,
{16}6-8[8:1],,,5,
6,,4,,
3bx,,2bx,,
2bx,,,,
{16}6h[16:3],,,5,
7,,4,,
3h[16:3],,,4,
2,,5,,
{16}6h[16:3],,,5,
7,,8,,
8/1,,2bx,,
2bx,,2bx,,
{16}3/6-8[8:1],,,5,
6,,4,,
2-5[8:1],,,,
2/1,,,,
{16}6/3-5[8:1],,,4,
3,,6,,
7-4[8:1],,2bx,,
2bx,,,,
{16}1-5[8:1],,,5,
1,,6,,
8-4[8:1],,,4,
8,,3,,
{16}2-6[8:1],,,6,
2,,7,,
8x,1x,2bx,3x,
4bx,5x,6bx,7x,
{16}8bx-6[8:1],,,1,
8,,2,,
3-1[8:1],,,4,
3,,5,,
{16}6-8[8:1],,,5,
6,,4,,
3/1,,2bx,,
2bx<6[4:1],,,,
{16}6>2[4:1],,,,
2<6[4:1],,,,
6>2[4:1],,,,
2,,,,
{16}1,,8,,
7,,6,,
5-8[8:1]/1-4[8:1],,,,
,,,,
{16}3-8[8:1]/5-7[8:1],,,,
,,,,
6-1[8:1]/4-2[8:1],,,,
,,,,
{16}8,,7,,
6/1,,2/5,,
4x-6[8:1]/3x-1[8:1],,,,
,,,,
{16}8-6[8:1],,,1,
8,,2,,
1-3[8:1],,,8,
1,,7,,
{16}6,,5,,
6/2,,3/7,,
8-2b[8:1]/4-2[8:1],,,,
,,,,
{16}6b/4b,,,,
7h[4:1],,,,
8,,1,,
2/4,,5,,
{16}6/4,,7,5,
6,,4,,
3-8[8:1],,2bx,,
2bx,,,,
{16}3/6,,4,,
7,,6,,
5/4,,3,4,
2,,1/8,,
{16}6/2,,3,,
6/4,,7,,
3/8,,2bx,,
,,2bx,,
{16}3/7,,8,,
1,,2,,
3<6[8:1],,,,
2,,1,,
{16}8,,7,,
6>3[8:1],,,,
7,,8bx,,
1bx,,2,,
{16}3-1[8:1],,,4,
3,,5,,
7-5[8:1],,,5,
7,,4,,
{16}3,5,3,5,
2,4,2,4,
1h[4:1],,3bx,,
3bx-5-7-1-3[1:4]*V57[1:2],,3bx,,
{16},,,,
,,,,
,,,,
,,,,
{16},,,,
,,,,
,,,,
,,,,
{16},,,,
,,,,
,,,,
,,,,
{16},,,,
,,,,
,,,,
,,,,
{16}7-4[4:3],,,,
,,,,
,,,,
,,,,
{16}3qq2[4:3],,,,
,,,,
,,,,
,,,,
{16}5w1[4:3],,,,
,,,,
,,,,
,,,,
{16},,,,
,,,,
,,,,
,,,,
{16}4b/5b,,,,
5,,3,,
6,,3,,
7,,3,,
{16}5,,2,,
6,,2,,
7,,2,,
5,,3,,
{16}6,,3,,
7,,3,,
6h[8:1],,2,,
5h[8:1],,1,,
{16}8/4-8[8:1],,,,
,,,,
1,,7,,
2,,7,,
{16}3,,7,,
1,,6,,
2,,6,,
3,,6,,
{16}1,,5,,
2,,5,,
3>8[16:3],,,,
4,,5,,
{16}6V47[16:5],,,,
4,,3,,
2,,,,
1,,8,,
{16}2-5[8:1]/7-4[8:1],,,,
,,,,
6xp8[8:1]/3xq1[8:1],,,,
,,,,
{16}Cf/E1h[8:3],,,,
,,,,
,,,,
,,,,
{16}E8h[8:3],,,,
,,,,
,,,,
,,,,
{16}E7h[8:3],,,,
,,,,
,,,,
,,,,
{16}E6/E2,,,,
,,C,,
,,,,
,,,,
{16}E5hf[1:3],,,,
,,,,
,,,,
,,,,
{16}Chf[4:9],,,,
,,,,
,,,,
,,,,
{16}E1hf[2:3],,,,
,,,,
,,,,
,,,,
{16},,,,
,,,,
,,,,
E5f,,,,
{16}3b/6-8[8:1],,,5,
6,,4,,
6/3-1[8:1],,,4,
3,,5,,
{16}8/6-4[8:1],,,5,
6,,3,,
2h[4:1],,1bx,,
1bx,,,,
{16}6h[16:3],,,5,
7,,4/8,,
3h[16:3],,,4,
2,,5/1,,
{16}6h[16:3],,,5,
7,,8/4,,
3/5,,1bx,,
1bx,,1bx,,
{16}3/6-8[8:1],,,5,
6,,4,,
1/2-5[8:1],,,,
2/4,,,,
{16}6-8[8:1],,,4,
6,,3,,
7-4[8:1],,1bx,,
1bx,,,,
{16}5/1-5[8:1],,,5,
1,,6,,
4/8-4[8:1],,,4,
8,,3,,
{16}5/2-6[8:1],,,6,
2,,7,,
8/4,1,2bx,3,
4bx,5,6bx,7,
{16}3b/8-6[8:1],,,1,
8,,2,,
5/3-1[8:1],,,4,
3,,5,,
{16}2/6-8[8:1],,,5,
6,,4,,
3/1,,2bx,,
2bx>6[4:1],,,,
{16}6<2[4:1],,,,
2v4-6[4:1],,,,
6V82[4:1],,,,
2,,,,
{16}3,,4,,
5/1,,6/2,,
7-2[8:1]/3-6[8:1],,7bx/3bx,,
,,,,
{16}4-1[8:1]/5-7[8:1],,,,
,,,,
5-8[8:1]/4-2[8:1],,,,
,,,,
{16}1,,2,,
3/8,,7/4,,
5bx-3[8:1]/6bx-8[8:1],,6bx/5bx,,
,,,,
{16}2bx/8bx-6[8:1],,,1,
8,,2,,
5bx/1bx-3[8:1],,,8,
1,,7,,
{16}6/2x,,5x/3,,
7/4x,,5/6x,,
5x-7[8:1]/3x-1[8:1],,,,
,,,,
{16}6b/4b,,,2,
3/5,,6,,
7,8,7,,
6/4,,3,,
{16}2/4,,1,8,
1,,7,,
6<1[8:1],,,,
2,,3,,
{16}4h[16:3],,,5,
,,6/4,,
7,5,7,,
4,,3,,
{16}2,1,2,1,
3,8,4,7,
5-8[8:1],,,4x,
4x,,,,
{16}1,2,3,4,
8,7,6,5,
1,8,7,6,
5,4,3,2,
{16}1/8h[16:3],,,7h[16:3],
,,6,,
4h[16:3],,,3h[16:3],
,,2,,
{16}8/1,,3,4,
2,,6,5,
7,,2,1,
2,8,1,8V64[16:3],
{16}1q5b[8:1],,,,
,,,,
3,6,2,6,
1,6,8,6,
{16}8xh[1:1],,,,
,,,,
,,,,
,,,,
{16}7h[1:1],,,,
,,,,
C,,,,
,,,,
{16}5h[1:1],,,,
,,,,
E1,,,,
,,,,
{16}6h[1:1],,,,
,,,,
C,,,,
,,,,
{16}5h[1:1],,,,
,,,,
E1,,,,
,,,,
{16}4h[1:1],,,,
,,,,
C,,,,
,,,,
{16}3h[2:3],,,,
,,,,
C,,,,
,,,,
{16}6h[2:1],,,,
,,,,
,,,,
,,,,
{16}4b/6b-8[8:1],,,5,
6/5,,4,,
3-1[8:1],,,4,
3/4,,5,,
{16}6,,8,,
4/6V42[4:1],,3,,
2V86[4:1],,1b,,
1b,,,,
{16}3h[16:3],,,4,
2,,8/1,,
6h[16:3],,,5,
7,,1/8,,
{16}2/7,,3,5,
4,,5/6,,
7/3,,1b,,
1b,,1b,,
{16}4/6-4[8:1],,3,3,
6,,2,,
2-5b[8:1],,,,
2/4,,,,
{16}7-1[8:1],,5,5,
7,,3,,
2-5[8:1],,1b,,
1b,,,,
{16}1V75[8:1],,,5,
1,,3,,
8V24[8:1],,,5,
8,,6,,
{16}5/7-3[8:1],,,3,
7,,2,,
1/5,8,7bx,6,
5bx,4,3bx,2,
{16}1/8bqq6[8:1],,,1,
8/1,,2,,
3>8[8:1],,,4,
3/4,,5,,
{16}6,,7,8,
6,,6/5,,
3b/7b,,,,
2pp3[4:1],,2,,
{16}3>7b[4:1],,,,
7pp6[4:1],,,,
6>2b[16:3],,,,
2,,,,
{16}8b,,6,,
5/3,,8/1,,
6-1[8:1]/2-5[8:1],,,,
2/6,,,,
{16}3b-7b[8:1]/4b-1[8:1],,,,
4/3,,,,
5b-8[8:1]/6b-1b[8:1],,,,
6/5,,,,
{16}2/7,,1,,
4/6,,7,,
4-6[8:1]/3-1[8:1],,2b,,
3/4,,,,
{16}2b/8b-4[8:1],,,1,
8/1x,,2x,,
5b/1b-5[8:1],,,8,
1/8x,,7x,,
{16}6/2bx,,8bx/3,,
5bx/4,,1bx/7,,
6pp8[8:1]/4bxqq2[8:1],,,,
6b/4b,,,,
{16}3b/7b,,,,
3/4,,1,,
6,5,6,,
7/4,,8,,
{16}8/1,,2/4,,
5,3,6,4,
7-4[8:1],,8b,,
8b,,,,
{16}3/5,,6,5,
7,,7,8,
{24}6,,,5x,4x,5x,
{16}3x,,2x,,
{16}7,8,5,4,
5,3,6,2,
7h[4:1],,8b,,
6x,5x,4bx,3x,
{16}7/2xh[4:1],,1,,
3x,4x,5x,6x,
2/7xh[8:1],,5,,
3/4,,1,8,
{16}2-4[8:1],,4,,
2/6-1[8:1],,7,,
3/6,,2b,,
2b,,,,
{16}5b/2b-5b[8:1],,,6x,
6x/2,,7x,,
8bV64b[16:3],,,4x,
4x/8,,2x,,
{16}1bx,,8/7bx,,
6bx/5,,4/3bx,,
1bxh[4:1],,,,
8b,,,,
E
