&title=潜在的なアイ(アニメ・エンディングver.)
&artist=13.3g
&first=0.24
&des=tikafi
&des_5=tikafi
&lv_5=13.3
&inote_5=(137){4},,2h[4:1],5h[4:1],
3h[4:1],4pp4qq4[8:5],{8}B7/B6/C/B8,,,7h[8:3],
,,,7,5,{16}3,3/4h[16:3],,,{8}2,
5/2,{16}6,5,,4/7,,,{8}8<3[4:1],4,3,2,
{4}1w5[8:1],1,7/3,2/5,
4/6,{8}4/3,6,{4}4/7,6/2,
3/8,{8}1,8/2pp5[8:3],,5,6,7,
8-4[8:1],8,1-5[8:1],1,{2}6b<3[4:1],
{4}5w1b[8:1],A5f/D6/D5,{8}3/7,{16}6,5,{8}6,4/7,
{16}2,1,,3,{8}4>1[8:1],5,4/6,{16}7,7,{8}8,6/5,
{16}2,4,,6,{8}5<8[8:1],4/3,5/1,{16}2,2,{8}1,3/4,
{16}7,5,,3,{8}4-1[8:1],5,{4}4/6-3[8:1],6/2-7[8:1],
2/8-5[8:1],8/1,{16}3-5[8:1],3,,5,,6,,7,
{8}7<4[8:1],8,1,2,2-6[8:1],4,5,5,
{2}4>1[8:1]/7<4[8:1],{8}1/5,{16}3,4,{8}3<6[8:1],2/1,
8-4[8:1],8,4,2<7[8:1],2,5,6>3[8:1],7,
{2}8-5[8:1]*-3[8:1],{8}7/1,{16}2,4,3,5,{8}4,
3v8[8:1]/7-4[8:1],7/3,,,1>4[8:1]/5<8[8:1],4/8,{16},,,,7,
5,6,4,{8}5,2-5[8:1]/6-1[8:1],{2}1<6[8:1]/5>2[8:1],
{8}1/5,{16}3,4,{8}2>5[8:1],1/8,6,6pp5[8:3],{16}4,4,,2,
{2}2h[4:1],3h[16:13]/B5/B4/Ch[16:3],
,7h[16:7]/B8/B1/Ch[16:3],
{16},,E6,E5,,E4/E3,,,2h[16:3],,,4,{8}3,5,
{16}7h[16:3],,,5,{8}6,4,5x/3x,B3/E3,4x/6x,E7/B6,
{2}1xs5[8:1]/8xz4b[8:1],{4}6/3-7-1-4[2:1],6,
5,5,2h[8:1]/4-6v7-1[2:1],2h[8:1],
3h[8:1],3h[8:1],{8}1,1,2/8,8/2,
7/3,7/3,6/4,5/3>8[8:1],,3/6pp5[8:3],,6/5,
E4,E3,{4}E2,6V47[4:1],{8}6/4,3,
{16}2-6[8:1],,,1,{8}2,8,7p5[4:1],4,3,2h[8:3],
,,B3/E4/B4,1,{16}7,8,,6/2h[16:3],,,{8}5,
4/3,{16}2,1,,6/4,,,{8}3/7>2[8:1],6,7/5,4,
7b-4[8:1]/3b-8b[8:1],1b/5b,{4}7b/3b,3V52[4:1],{8}5/3,6,
{16}7-3[8:1],,,8,{8}7,1,2q4[4:1],4,5,6h[8:3],
,,C/B5/B4,8,1/2,3,4/5,6,
{16}7,8,,2,{8}4qq5[4:1],5,4b/6b,7,8b>3b[8:1],4h[8:3],
{4}8,Cf/B8/B1,{8}2/4,{16}6,5,{8}6,1/2,
{16}3,4,,6,{8}5>2[8:1],7/4,6/5,{16}8,8,{8}1,{16}3,5,
{8}4,{16}2,1,,7,{8}8,{4}6h[8:1]/5-8[8:1],{8}5/4,3,
{4}2h[8:1]/4-1[8:1],{8}5/4,6,7/8,{16}6,5,,2,{8}4,
{4}7-4[8:1]/5-1b[8:1],5b/7b,7/8>3[8:1],8/5<8[8:1],
5/2>5[8:1],{8}2/1,8,7qq8[4:1],5,4,3h[8:3],
,,1-5[8:1],8,7/1,6,5/4>6[4:1],2/3,
{2}1h[2:1],Cf/B6/E6/B5,
{4}4w8b[8:1],B4f,{8}5,{16}3,4,{8}3,2/1,
{16}7,8,,2,{8}4,5/3,6/5-1[8:1],{16}7,7,{8}5,8,
{16}2,1,,7,{8}5,6/4,3/7-3[8:1],{16}8,1,{8}7,2,
{16}6,4,,2,{8}1,7/8,2/6,{16}3,3,{8}4>1[8:1],{16}6,6,
{4}4<7[8:1],4/3,{16}2,1,2,8h[8:1],,,3,3,
7,5,6,4,,,{8}1bpp4[8:5]/5bpp8[8:5],,,,,,,,2b/6b,
E
